<?xml version="1.0" standalone="no"?>
<!DOCTYPE svg PUBLIC "-//W3C//DTD SVG 1.1//EN" "http://www.w3.org/Graphics/SVG/1.1/DTD/svg11.dtd" >
<svg>
<metadata>
Created by FontForge 20090914 at Mon Oct  7 23:45:56 2013
 By www-data
</metadata>
<defs>
<font id="olivier" horiz-adv-x="500" >
  <font-face 
    font-family="olivier"
    font-weight="400"
    font-stretch="normal"
    units-per-em="1000"
    panose-1="0 0 0 0 0 0 0 0 0 0"
    ascent="750"
    descent="-250"
    x-height="405"
    cap-height="689.999"
    bbox="-42.5777 -401.263 975.522 895.251"
    underline-thickness="50"
    underline-position="-50"
    unicode-range="U+0020-U+FB02"
  />
<missing-glyph horiz-adv-x="281" 
 />
    <glyph glyph-name=".notdef" horiz-adv-x="281" 
 />
    <glyph glyph-name="space" unicode=" " horiz-adv-x="281" 
 />
    <glyph glyph-name="exclam" unicode="!" horiz-adv-x="230" 
d="M155 660c6.66699 -9.33301 10.333 -19.665 11 -30.998s0 -23.166 -2 -35.499s-4.33301 -24.666 -7 -36.999s-4 -24.166 -4 -35.499c0 -16.667 1.66699 -36.167 5 -58.5s5.66602 -45 6.99902 -68s0.166016 -45.167 -3.50098 -66.5s-12.5 -39.333 -26.5 -54
c-2.66699 -2 -6 -6.66699 -10 -14s-8.16699 -14 -12.5 -20s-9 -9.66699 -14 -11s-9.83301 3 -14.5 13c-10 16.667 -16.167 34.667 -18.5 54s-4.16602 38.333 -5.49902 57c-2 27.333 -4.66699 55.166 -8 83.499s-5.83301 56.833 -7.5 85.5s-1.5 57.167 0.5 85.5
s7 56.166 15 83.499c4 9.33301 10.333 14.166 19 14.499s17.834 -1.83398 27.501 -6.50098s19 -10.834 28 -18.501s15.833 -14.5 20.5 -20.5zM88.999 80.001c12 -3.33301 23.332 -10.167 33.999 -20.5s15.334 -22.166 14.001 -35.499c0 -15.333 -6.5 -24.333 -19.5 -27
s-27.5 -0.333984 -43.5 6.99902c-9.33301 2.66699 -16 8.5 -20 17.5s-5.5 18.167 -4.5 27.5s4.83301 17.333 11.5 24s16 9 28 7z" />
    <glyph glyph-name="quotedbl" unicode="&#x22;" horiz-adv-x="354" 
d="M173 624l-3.00195 30.502c-1.33301 13.667 -2 27.5 -2 41.5s1.66699 26.5 5 37.5s9.33301 17.167 18 18.5c6.66699 1.33301 14.334 -0.333984 23.001 -5.00098s17 -10.834 25 -18.501s14.833 -15.834 20.5 -24.501s9.16699 -16 10.5 -22
c1.33301 -11.333 1.33301 -23.666 0 -36.999s-3.66602 -26.5 -6.99902 -39.5s-7.66602 -24.833 -12.999 -35.5s-11.333 -19 -18 -25s-13.5 -6 -20.5 0s-13.333 14.167 -19 24.5s-10.334 21 -14.001 32s-5.5 18.5 -5.5 22.5zM71.998 586.002
c-9.33301 22 -15.001 45 -17.001 69s-1.33301 47.667 2 71c6.66699 9.33301 14.334 14.5 23.001 15.5s17 -0.666992 25 -5s15 -10.5 21 -18.5s10 -16 12 -24c15.333 -47.333 15.333 -95 0 -143c-2.66699 -9.33301 -7 -14 -13 -14s-12.5 2.5 -19.5 7.5s-13.667 11.5 -20 19.5
s-10.833 15.333 -13.5 22z" />
    <glyph glyph-name="numbersign" unicode="#" horiz-adv-x="570" 
d="M332 -6c1.33301 22 2.83008 43.9941 4.49707 65.9941s0.166992 43.667 -4.5 65c-2 -0.666992 -6.33301 -1.83398 -13 -3.50098s-14.334 -4 -23.001 -7s-17.5 -6.33301 -26.5 -10s-16.833 -7.5 -23.5 -11.5c-0.666992 -4.66699 -1.83398 -13.667 -3.50098 -27
s-4.5 -26.666 -8.5 -39.999s-9.33301 -24.833 -16 -34.5s-15.334 -13.167 -26.001 -10.5c-8 2 -14.333 8.33301 -19 19s-8.16699 21.667 -10.5 33s-3.66602 21.5 -3.99902 30.5s0.166992 12.833 1.5 11.5c-18 -6.66699 -35.333 -12.334 -52 -17.001
c-14 -4.66699 -27.833 -8.66699 -41.5 -12s-24.167 -5 -31.5 -5c-15.333 -0.666992 -25.166 1.66602 -29.499 6.99902s-5.83301 11.333 -4.5 18s4.33301 13.334 9 20.001s8.66699 11 12 13c8 6 15.167 10.667 21.5 14s12.666 6.33301 18.999 9l19.5 8
c6.66699 2.66699 14 6 22 10c5.33301 2.66699 11.166 5.16699 17.499 7.5s12 4.66602 17 6.99902s9.16699 4.83301 12.5 7.5s4.66602 5.66699 3.99902 9c-1.33301 5.33301 -2.5 13.333 -3.5 24s-1.83301 21.834 -2.5 33.501s-1.16699 22.834 -1.5 33.501
s-0.5 18.667 -0.5 24c-9.33301 -0.666992 -18.333 -3 -27 -7l-25.5 -12c-8.33301 -4 -16.666 -7.5 -24.999 -10.5s-16.5 -3.5 -24.5 -1.5c-19.333 5.33301 -30.166 14.166 -32.499 26.499s4.16699 23.5 19.5 33.5c18.667 10.667 39.334 21.5 62.001 32.5l63 30.5
c3.33301 0.666992 5.83301 5 7.5 13s2.66699 17.5 3 28.5l1 34c0.333008 11.667 1.16602 21.5 2.49902 29.5c2 10.667 4 27.167 6 49.5s5 45.166 9 68.499s9.66699 44.333 17 63s17.666 29.667 30.999 33c8 2 14.5 -2.16699 19.5 -12.5s8.66699 -24.333 11 -42
s3.5 -37.5 3.5 -59.5s-0.333008 -43.667 -1 -65s-1.5 -41 -2.5 -59s-1.83301 -31.667 -2.5 -41c8.66699 0 17.5 1 26.5 3s17.167 4.33301 24.5 7s13.5 5.33398 18.5 8.00098s7.5 4.33398 7.5 5.00098c-0.666992 6.66699 -1.33398 15.5 -2.00098 26.5
s-0.833984 22.333 -0.500977 34s1.83301 22.834 4.5 33.501s7 18.667 13 24c8 6.66699 15.833 9.33398 23.5 8.00098s14.834 -5 21.501 -11s12 -13 16 -21s6.33301 -15 7 -21l4 -27c1.33301 -8.66699 3.33301 -17.334 6 -26.001c9.33301 -1.33301 19 -0.333008 29 3
s19.667 6.33301 29 9c4 0.666992 9.83301 1.5 17.5 2.5s15.834 2 24.501 3s16.667 1.66699 24 2s12.333 -0.5 15 -2.5c0.666992 -9.33301 -5.33301 -18.666 -18 -27.999s-27 -18.333 -43 -27l-44.5 -24.5c-13.667 -7.66699 -21.5 -14.5 -23.5 -20.5
c-1.33301 -3.33301 -2.16602 -10 -2.49902 -20s-0.5 -21 -0.5 -33s0.166992 -23.667 0.5 -35s0.5 -20.333 0.5 -27c8.66699 0 19.834 0.333008 33.501 1s26.334 0.833984 38.001 0.500977s20.834 -1.5 27.501 -3.5s7.66699 -5.66699 3 -11
c-6.66699 -10 -15.334 -19 -26.001 -27s-21.334 -15.167 -32.001 -21.5l-27 -16c-7.33301 -4.33301 -10.666 -7.5 -9.99902 -9.5c0.666992 -13.333 -0.666016 -31.666 -3.99902 -54.999s-8 -47.166 -14 -71.499s-13.167 -47.166 -21.5 -68.499s-17.5 -37 -27.5 -47
c-11.333 -10 -20.166 -13.833 -26.499 -11.5s-11.166 7.5 -14.499 15.5s-5.5 17.5 -6.5 28.5s-1.16699 20.167 -0.5 27.5zM329.997 333.994c-11.333 0 -21.834 -1.99707 -31.501 -5.99707s-20.167 -7.33301 -31.5 -10c-2 -0.666992 -3.16699 -5.83398 -3.5 -15.501
s-0.5 -21 -0.5 -34s-0.166992 -26 -0.5 -39s-1.16602 -23.5 -2.49902 -31.5c8 2 14.5 4.16699 19.5 6.5s9.66699 4.66602 14 6.99902s9 4.66602 14 6.99902s11.5 4.16602 19.5 5.49902c1.33301 0.666992 2 5.33398 2 14.001v30.5v35.5c0 12 0.333008 22 1 30z" />
    <glyph glyph-name="dollar" unicode="$" horiz-adv-x="531" 
d="M262 -251c-10 -3.33301 -18.0039 -1.34082 -24.0039 5.99219s-11 17.333 -15 30s-7 26.834 -9 42.501s-3.66699 30.334 -5 44.001s-2.5 25.167 -3.5 34.5s-2.5 14 -4.5 14c-20.667 3.33301 -43.667 11 -69 23s-47.666 26.167 -66.999 42.5s-33.666 33.666 -42.999 51.999
s-8.33301 35.5 3 51.5c6.66699 4 15.667 4.16699 27 0.5s24.833 -9 40.5 -16s32.834 -14.167 51.501 -21.5s38.667 -12.666 60 -15.999c0.666992 16.667 1.66699 37.834 3 63.501s2.5 50.834 3.5 75.501s1.5 46 1.5 64s-1.33301 27.667 -4 29
c-17.333 7.33301 -35.5 19.333 -54.5 36s-35.667 36.167 -50 58.5s-24.333 46.833 -30 73.5s-3.83398 54 5.49902 82c6.66699 14.667 15.334 26.834 26.001 36.501s22.334 17.334 35.001 23.001s26.167 9.66699 40.5 12s28.833 3.83301 43.5 4.5
c-3.33301 23.333 -3.66602 44.333 -0.999023 63l8 56c2 13.333 5.66699 22.333 11 27s11.333 6.83398 18 6.50098s13.167 -2 19.5 -5s11.5 -4.83301 15.5 -5.5c6 -6 10.667 -15.833 14 -29.5s5.83301 -28.334 7.5 -44.001s2.66699 -30.667 3 -45s0.5 -25.5 0.5 -33.5
c0 -2.66699 5 -5.5 15 -8.5s20.833 -7.16699 32.5 -12.5s22.334 -12.333 32.001 -21s14.167 -19.667 13.5 -33c-29.333 -18 -58.333 -23.667 -87 -17c-2 -8.66699 -3 -19.167 -3 -31.5s0.333008 -25.333 1 -39l2 -40c0.666992 -13 0.333984 -24.5 -0.999023 -34.5
c0 -1.33301 5 -4.5 15 -9.5s22.667 -12.167 38 -21.5s31.666 -21.166 48.999 -35.499s33.5 -31 48.5 -50s27.167 -40.5 36.5 -64.5s13.666 -50.667 12.999 -80c-0.666992 -25.333 -5.5 -47.166 -14.5 -65.499s-20.167 -34 -33.5 -47s-27.833 -23.5 -43.5 -31.5
s-30.834 -14.333 -45.501 -19s-27.5 -7.83398 -38.5 -9.50098s-18.167 -2.83398 -21.5 -3.50098c-1.33301 -2.66699 -2 -11.667 -2 -27s-1.66699 -32.166 -5 -50.499s-9.5 -35.666 -18.5 -51.999s-22.5 -26.833 -40.5 -31.5zM403.996 43.9922
c17.333 5.33301 28.832 12.1641 34.499 20.4971s7.16699 17.333 4.5 27s-8.66699 19.834 -18 30.501s-19.5 20.834 -30.5 30.501s-22.333 18.667 -34 27s-21.167 14.833 -28.5 19.5c-0.666992 -16 -0.5 -31.333 0.5 -46s1.83301 -29 2.5 -43s1.16699 -27.667 1.5 -41
s-0.5 -26.666 -2.5 -39.999c8 0.666992 14.667 1.33398 20 2.00098s10.333 1.66699 15 3l15 4.5c5.33301 1.66699 12 3.5 20 5.5c2.66699 1.33301 2.83398 1.66602 0.500977 0.999023s-4.83301 -1.5 -7.5 -2.5l-4 -1.5zM157.995 464.99c-4 -20 0.333008 -35.668 13 -47.001
s27 -19.333 43 -24c2.66699 16 3.66699 33.333 3 52s-0.666992 36.334 0 53.001c-18 8 -31.667 8.33301 -41 1s-15.333 -19 -18 -35z" />
    <glyph glyph-name="percent" unicode="%" horiz-adv-x="522" 
d="M509 161c13.333 -16 17.4961 -32.501 12.4961 -49.501s-14.167 -32.5 -27.5 -46.5s-28.666 -26 -45.999 -36s-32 -16.333 -44 -19c-23.333 -6 -43.666 -3 -60.999 9s-30.833 28.333 -40.5 49s-15 42.834 -16 66.501s3.33301 44.167 13 61.5s25 28.833 46 34.5
s49.167 0.5 84.5 -15.5c0.666992 -1.33301 4.33398 -3.66602 11.001 -6.99902s14.334 -7.5 23.001 -12.5s17.167 -10.333 25.5 -16s14.833 -11.834 19.5 -18.501zM432.996 85.999c2.66699 5.33301 0.331055 12 -7.00195 20s-16.166 15.667 -26.499 23s-20.5 14 -30.5 20
s-16.333 10 -19 12c-7.33301 -10.667 -11 -24.5 -11 -41.5s3.66699 -32.167 11 -45.5c12.667 -5.33301 27.334 -7 44.001 -5s29.667 7.66699 39 17zM426.993 377.999c-16.667 -25.333 -39.167 -51.832 -67.5 -79.499s-58 -55 -89 -82l-91.5 -78c-30 -25 -55 -47.5 -75 -67.5
c-16 -16 -27.833 -24.167 -35.5 -24.5s-12.167 3.5 -13.5 11.5s-0.333008 18.833 3 32.5s8 26.5 14 38.5c12 27.333 26.667 52.833 44 76.5l54 71.5c8 10.667 17 21.167 27 31.5s20.333 20.5 31 30.5s21 20.333 31 31s18.667 22 26 34c6.66699 12 14.834 24.667 24.501 38
s20.167 26.166 31.5 38.499s23.5 23 36.5 32s26.167 14.833 39.5 17.5c0 -2 2.16699 -8.16699 6.5 -18.5s8.16602 -23 11.499 -38s5 -31 5 -48s-4.33301 -32.833 -13 -47.5zM215.993 657c28.667 -10 49.5049 -26 62.5049 -48s19.833 -46.333 20.5 -73
s-3.83301 -53.5 -13.5 -80.5s-22.834 -50.333 -39.501 -70s-35.834 -33.5 -57.501 -41.5s-43.834 -6 -66.501 6c-19.333 8.66699 -34 20.167 -44 34.5s-17 30 -21 47s-5.33301 34.833 -4 53.5s3.66602 37 6.99902 55c2 15.333 7.5 30.5 16.5 45.5s20.333 27.833 34 38.5
s29 17.834 46 21.501s34.5 2.16699 52.5 -4.5c3.33301 2.66699 4.66602 5.66699 3.99902 9s0.333008 5.66602 3 6.99902zM193.998 411c8 8.66699 14.6641 19.666 19.9971 32.999s9.33301 27.5 12 42.5s3.5 29.833 2.5 44.5s-4.16699 27.667 -9.5 39s-13 19.833 -23 25.5
s-22.667 6.83398 -38 3.50098c-14.667 -3.33301 -25.834 -12 -33.501 -26s-12.167 -30.333 -13.5 -49s-0.166016 -37.5 3.50098 -56.5s9.33398 -34.833 17.001 -47.5s16.834 -20.667 27.501 -24s22.334 1.66699 35.001 15c5.33301 6 7.83301 9 7.5 9
s-1.5 -1.16699 -3.5 -3.5l-5.5 -6.5c-1.66699 -2 -1.16699 -1.66699 1.5 1z" />
    <glyph glyph-name="ampersand" unicode="&#x26;" horiz-adv-x="541" 
d="M244 11c-26.667 -11.333 -50.999 -17.835 -72.999 -19.502s-41.833 0.333008 -59.5 6s-33.167 14 -46.5 25s-24.333 24.167 -33 39.5c-18.667 32 -28.167 61.5 -28.5 88.5s4.5 52 14.5 75s23.5 44.167 40.5 63.5l49.5 54c2 2 -1.5 8.33301 -10.5 19
s-19.167 24.167 -30.5 40.5s-22.333 34.833 -33 55.5s-16.334 42 -17.001 64c-0.666992 18.667 0.5 37.834 3.5 57.501s8.83301 38 17.5 55s20 32.167 34 45.5s31.667 23.333 53 30c14 4.66699 31.5 7.66699 52.5 9s42 -0.166992 63 -4.5s40.5 -12.333 58.5 -24
s31.333 -28.167 40 -49.5c8 -20.667 11.5 -41.167 10.5 -61.5s-4.83301 -40 -11.5 -59s-15 -36.833 -25 -53.5s-20 -31.5 -30 -44.5s-18.667 -23.667 -26 -32s-11.666 -13.5 -12.999 -15.5c-3.33301 -5.33301 -2 -12.333 4 -21s14 -17.667 24 -27s20.667 -18.5 32 -27.5
l28 -22.5l13 25.5c6 11.667 13.167 24.5 21.5 38.5s17.5 28.5 27.5 43.5s20.333 28.333 31 40s21.5 20.834 32.5 27.501s21.5 8.66699 31.5 6c19.333 -4.66699 34.166 -12.334 44.499 -23.001s15.5 -21.334 15.5 -32.001c0 -1.33301 -3.16699 -6.66602 -9.5 -15.999
l-23.5 -34.5l-31 -44l-32.5 -45l-26.5 -37l-14 -19.5c-2.66699 -2.66699 0.666016 -8 9.99902 -16s21.333 -16.333 36 -25s30.5 -16.667 47.5 -24s31.5 -11.333 43.5 -12c10.667 -2 17.334 -7.33301 20.001 -16s1.33398 -17.667 -3.99902 -27s-14 -17.166 -26 -23.499
s-27 -7.83301 -45 -4.5c-16.667 2.66699 -30.667 6.16699 -42 10.5s-21.5 9 -30.5 14s-17.5 10.333 -25.5 16s-17.333 11.5 -28 17.5c-2.66699 0 -6.33398 -3.66699 -11.001 -11s-11.5 -16.333 -20.5 -27s-21 -22.167 -36 -34.5s-33.833 -23.5 -56.5 -33.5zM174.001 276.998
l-32.502 -37.998c-12.333 -14.667 -23.166 -29.667 -32.499 -45s-15.666 -30.5 -18.999 -45.5s-1 -28.167 7 -39.5c12 -16.667 27.167 -24.5 45.5 -23.5s36.833 6.66699 55.5 17s35.5 23.666 50.5 39.999s24.5 31.5 28.5 45.5c1.33301 4 -3.16699 11 -13.5 21
s-22 20.333 -35 31s-25.167 19.667 -36.5 27s-17.333 10.666 -18 9.99902zM261.999 592c-4.66699 10.667 -10.3369 18.835 -17.0039 24.502s-13.5 9.66699 -20.5 12s-14 3.33301 -21 3s-13.167 -0.833008 -18.5 -1.5c-21.333 -3.33301 -35.166 -12.833 -41.499 -28.5
s-8.16602 -33.167 -5.49902 -52.5s8 -38.5 16 -57.5s16 -33.167 24 -42.5c6 3.33301 14.833 10.166 26.5 20.499s22.834 22.333 33.501 36s18.834 28.167 24.501 43.5s5.5 29.666 -0.5 42.999z" />
    <glyph glyph-name="quotesingle" unicode="'" horiz-adv-x="164" 
d="M25 568c-6 28 -5.49902 56.3369 1.50098 85.0039s14.5 57 22.5 85c8.66699 10 18.167 14.667 28.5 14s19.666 -4.33398 27.999 -11.001s15.5 -15.334 21.5 -26.001s9.66699 -21 11 -31c2 -14.667 2 -27.334 0 -38.001s-5.16699 -20.834 -9.5 -30.501
s-10 -19.167 -17 -28.5l-23.5 -32c-7.33301 -10 -14.5 -16.5 -21.5 -19.5s-13.167 -3.5 -18.5 -1.5s-10 6.16699 -14 12.5s-7 13.5 -9 21.5z" />
    <glyph glyph-name="parenleft" unicode="(" horiz-adv-x="244" 
d="M30 382c3.33301 28.667 8.16602 54.3291 14.499 76.9961s13.666 43.834 21.999 63.501s17.5 38.834 27.5 57.501l33 60c0 1.33301 2.33301 6 7 14s10.5 17.167 17.5 27.5s14.833 20.833 23.5 31.5s16.834 19.5 24.501 26.5s14.334 11.333 20.001 13
s9.16699 -1.16602 10.5 -8.49902c0 -16 -4.33301 -36.5 -13 -61.5l-31 -87c-12 -33 -24 -69.333 -36 -109s-21 -82.167 -27 -127.5c-4 -27.333 -5.16699 -55.5 -3.5 -84.5s4.66699 -57.5 9 -85.5s9.16602 -54.5 14.499 -79.5s9.83301 -47.167 13.5 -66.5
s5.66699 -35.166 6 -47.499s-2.16699 -19.166 -7.5 -20.499c-3.33301 -1.33301 -9.5 2.66699 -18.5 12s-19 22.5 -30 39.5s-22.167 38 -33.5 63s-21.166 52.667 -29.499 83s-14 63.166 -17 98.499s-1.83301 72.333 3.5 111z" />
    <glyph glyph-name="parenright" unicode=")" horiz-adv-x="245" 
d="M142 261c0 26 -0.334961 50.1699 -1.00195 72.5029s-1.66699 43.833 -3 64.5s-3 41 -5 61s-4.66699 41 -8 63c-1.33301 6 -4.66602 16 -9.99902 30s-11.666 29.5 -18.999 46.5l-22.5 53c-7.66699 18.333 -14.167 35.166 -19.5 50.499s-8.83301 28.166 -10.5 38.499
s0.166016 16.166 5.49902 17.499c11.333 2 24.166 -2.5 38.499 -13.5s28.833 -26.667 43.5 -47s28.834 -44.5 42.501 -72.5s25.834 -58 36.501 -90s19.5 -65 26.5 -99s10.833 -67 11.5 -99c0.666992 -45.333 -2.83301 -90 -10.5 -134s-18 -83.167 -31 -117.5
s-27.333 -61.833 -43 -82.5s-30.5 -30.334 -44.5 -29.001c-4.66699 2 -7.5 8.33301 -8.5 19s-0.833008 23.834 0.5 39.501s3.33301 33.5 6 53.5s5.66699 40.167 9 60.5l9.5 60.5c3 20 5.16699 38 6.5 54z" />
    <glyph glyph-name="asterisk" unicode="*" 
d="M429 233c-3.33301 -8 -10.8398 -11.001 -22.5068 -9.00098s-24.167 6.33301 -37.5 13s-25.833 13.667 -37.5 21l-22.5 14c-16 10.667 -29 14.667 -39 12s-18.833 -9.33398 -26.5 -20.001s-14.834 -23.5 -21.501 -38.5s-15 -29.167 -25 -42.5
c-16 -22 -28.5 -35.333 -37.5 -40s-15.333 -3.5 -19 3.5s-5.33398 18 -5.00098 33s1.83301 31 4.5 48s5.83398 33.5 9.50098 49.5s6.83398 28.333 9.50098 37c-4 0.666992 -10.5 0.666992 -19.5 0s-19 -1.16699 -30 -1.5s-22 -0.333008 -33 0s-20.333 2.33301 -28 6
s-12.667 9.16699 -15 16.5s-0.166016 17.333 6.50098 30c4.66699 10 12.334 17.333 23.001 22s22 8 34 10s24.167 3.16699 36.5 3.5s22.833 1.16602 31.5 2.49902c-2 8 -6.83301 14.833 -14.5 20.5s-15.167 11.5 -22.5 17.5s-13.5 12.5 -18.5 19.5s-6.16699 15.5 -3.5 25.5
c3.33301 12 8 19.167 14 21.5s12.333 2.16602 19 -0.500977s13.334 -6.66699 20.001 -12s12.667 -9.66602 18 -12.999c16 -12 31.167 -18.833 45.5 -20.5s27.833 -0.5 40.5 3.5s24.334 9.83301 35.001 17.5s20 15 28 22s14.833 12.5 20.5 16.5s9.83398 4.33301 12.501 1
c3.33301 -4 4 -9.5 2 -16.5s-5.33301 -15 -10 -24l-14.5 -29c-5 -10.333 -8.5 -20.166 -10.5 -29.499c11.333 -2 22.5 -2.5 33.5 -1.5s22 2.33301 33 4s21.833 3.16699 32.5 4.5s21.334 1.33301 32.001 0c2 -6 0.166992 -11.667 -5.5 -17s-12.667 -10 -21 -14
s-16.5 -7.5 -24.5 -10.5s-13.333 -4.83301 -16 -5.5c-9.33301 -3.33301 -19.166 -7.16602 -29.499 -11.499s-20.166 -9.16602 -29.499 -14.499c-4 -2.66699 -4 -7 0 -13s9.83301 -13.167 17.5 -21.5s16.5 -17.166 26.5 -26.499l27.5 -26.5
c8.33301 -8.33301 15.166 -15.833 20.499 -22.5s7.33301 -11.334 6 -14.001z" />
    <glyph glyph-name="plus" unicode="+" horiz-adv-x="469" 
d="M282 74c-4 -5.33301 -11.6709 -6.83496 -23.0039 -4.50195s-23.5 7.83301 -36.5 16.5s-25.167 20 -36.5 34s-19 30 -23 48c-1.33301 6.66699 -2.33301 14.334 -3 23.001s-1 16.667 -1 24c-0.666992 8.66699 -0.666992 17.667 0 27
c-4.66699 -1.33301 -15 -1.83301 -31 -1.5s-32.833 1.66602 -50.5 3.99902s-33.334 6 -47.001 11s-20.5 11.833 -20.5 20.5c0.666992 13.333 4.83398 24.166 12.501 32.499s17 14.833 28 19.5s22.833 7.66699 35.5 9s24.334 2 35.001 2s19.667 -0.166992 27 -0.5
s11 -0.166016 11 0.500977c-0.666992 1.33301 -1.16699 7.83301 -1.5 19.5s0 25.334 1 41.001s2.83301 31.834 5.5 48.501s6.33398 30.5 11.001 41.5s10.834 17.833 18.501 20.5s17.167 -2.33301 28.5 -15c14 -14.667 26.5 -26.334 37.5 -35.001s20.5 -17.167 28.5 -25.5
s14 -18.5 18 -30.5s6 -28.667 6 -50c0 -2 7 -2.16699 21 -0.5s38 4.16699 72 7.5c10 0.666992 18.167 -2.16602 24.5 -8.49902s11.5 -14 15.5 -23s7.33301 -17.667 10 -26s6 -13.833 10 -16.5c-2 -8.66699 -9.66699 -15 -23 -19s-28.5 -7.16699 -45.5 -9.5
s-33.833 -4.5 -50.5 -6.5s-29.334 -5.33301 -38.001 -10c-1.33301 -8 -1.66602 -18.667 -0.999023 -32s0.666992 -27.833 0 -43.5s-2.66699 -31.5 -6 -47.5s-9.66602 -31 -18.999 -45z" />
    <glyph glyph-name="comma" unicode="," horiz-adv-x="295" 
d="M211 82c8.66699 -6.66699 14.667 -14.167 18 -22.5s4.5 -17.333 3.5 -27s-3.66699 -19.667 -8 -30s-9.83301 -20.5 -16.5 -30.5c-11.333 -17.333 -24.166 -33.833 -38.499 -49.5s-30.5 -29.5 -48.5 -41.5c-10.667 -7.33301 -21.334 -12.333 -32.001 -15
s-19.334 -2.83398 -26.001 -0.500977s-10.167 7.5 -10.5 15.5s4.5 19.333 14.5 34c12 16.667 20.333 32.334 25 47.001s8.5 28.5 11.5 41.5s6.5 25.167 10.5 36.5s11.333 22 22 32c14.667 13.333 27.834 20.333 39.501 21s23.5 -3 35.5 -11z" />
    <glyph glyph-name="hyphen" unicode="-" horiz-adv-x="479" 
d="M326 350c13.333 -3.33301 28 -8.00195 44 -14.002s29.667 -11.667 41 -17c8.66699 -5.33301 14.5 -11.666 17.5 -18.999s3.5 -14.666 1.5 -21.999s-6 -13.5 -12 -18.5s-13.333 -7.5 -22 -7.5c-37.333 -3.33301 -70.833 -6.5 -100.5 -9.5l-99.5 -10.5
c-20.667 -1.33301 -38.167 0.333984 -52.5 5.00098s-31.166 11 -50.499 19c-8.66699 6 -14.334 12.833 -17.001 20.5s-3.33398 15.167 -2.00098 22.5s3.83301 13.833 7.5 19.5s7.5 9.5 11.5 11.5c4.66699 3.33301 17.5 6.66602 38.5 9.99902s44.333 6 70 8
s50.334 3.33301 74.001 4s40.5 0 50.5 -2z" />
    <glyph glyph-name="period" unicode="." horiz-adv-x="263" 
d="M159 134c9.33301 0 18.332 -2.66699 26.999 -8s15.834 -12.166 21.501 -20.499s9.16699 -17.5 10.5 -27.5s-0.333984 -19.333 -5.00098 -28c-6.66699 -12 -17.167 -23 -31.5 -33s-29.166 -15.833 -44.499 -17.5s-29.5 2.16602 -42.5 11.499s-21.5 27 -25.5 53
c-2 14.667 0.333008 26 7 34s15.167 14.167 25.5 18.5s21 7.5 32 9.5s19.5 4.66699 25.5 8z" />
    <glyph glyph-name="slash" unicode="/" horiz-adv-x="316" 
d="M225 350c-1.33301 -15.333 -3.3291 -34.0039 -5.99609 -56.0039s-6.16699 -45.167 -10.5 -69.5s-9.33301 -48.833 -15 -73.5s-12.334 -47 -20.001 -67s-16.334 -36.833 -26.001 -50.5s-20.5 -21.834 -32.5 -24.501c-17.333 -4.66699 -29.833 -1.5 -37.5 9.5
s-11.834 26.333 -12.501 46s1 42.334 5 68.001s8.83301 50.5 14.5 74.5l16 65l10.5 41c2.66699 12.667 7.33398 31.334 14.001 56.001s14.667 51.5 24 80.5s19.5 58.333 30.5 88s22.167 56.334 33.5 80.001s22.666 42 33.999 55s21.666 17.5 30.999 13.5
c8.66699 -3.33301 11.667 -14.666 9 -33.999s-8 -44 -16 -74s-16.667 -64.667 -26 -104s-16 -80.666 -20 -123.999z" />
    <glyph glyph-name="zero" unicode="0" horiz-adv-x="492" 
d="M358 615c0 -18 3.83203 -32.166 11.499 -42.499s16.667 -19.833 27 -28.5s21.166 -18.334 32.499 -29.001s21 -25 29 -43c7.33301 -18 12.666 -37.167 15.999 -57.5s4.66602 -41.333 3.99902 -63s-2.66699 -43.167 -6 -64.5s-7.66602 -41.333 -12.999 -60
c-7.33301 -25.333 -18.166 -51.833 -32.499 -79.5s-31.666 -52.667 -51.999 -75s-44 -40.333 -71 -54s-56.5 -19.5 -88.5 -17.5c-31.333 2 -60 12.333 -86 31s-48.5 41.834 -67.5 69.501s-33.667 57.667 -44 90s-14.833 63.166 -13.5 92.499
c1.33301 40.667 6.83301 78 16.5 112s21.834 64 36.501 90s31.167 48 49.5 66s36.5 31.667 54.5 41c20 9.33301 37.5 14.5 52.5 15.5s29.667 0.666992 44 -1s29.333 -2.66699 45 -3s34.167 3.16699 55.5 10.5zM333.999 421.001c-2 10 -5.33496 22.0029 -10.002 36.0029
s-10.667 27.5 -18 40.5s-16 24 -26 33s-21 13.833 -33 14.5c-11.333 0 -21.5 -4.5 -30.5 -13.5s-17 -20 -24 -33s-13 -26.333 -18 -40s-8.83301 -25.167 -11.5 -34.5c-7.33301 -22.667 -13.5 -46.667 -18.5 -72s-8.33301 -50.5 -10 -75.5s-1.83398 -49.167 -0.500977 -72.5
s4.83301 -44.333 10.5 -63s13.334 -34 23.001 -46s21.834 -19 36.501 -21c21.333 -2 40 2.5 56 13.5s29.5 26 40.5 45s19.667 41.167 26 66.5s10.833 51.166 13.5 77.499s3.33398 52.166 2.00098 77.499s-4 47.666 -8 66.999z" />
    <glyph glyph-name="one" unicode="1" horiz-adv-x="391" 
d="M194 175c3.33301 48.667 7.15723 98.6719 11.4902 150.005s5.16602 101.666 2.49902 150.999c-11.333 -4 -22 -10.833 -32 -20.5s-19.5 -20.5 -28.5 -32.5s-17.5 -24.167 -25.5 -36.5l-21 -31.5c-6.66699 -8 -14.167 -20.5 -22.5 -37.5s-17.166 -33.5 -26.499 -49.5
s-19 -28.833 -29 -38.5s-20 -10.5 -30 -2.5c-5.33301 4 -5.16602 14.333 0.500977 31s14.334 36 26.001 58s24.667 44.5 39 67.5s27.5 42.5 39.5 58.5c10.667 15.333 21.834 30.333 33.501 45l34.5 43.5l32.5 43c10.333 14.333 19.5 29.5 27.5 45.5
c6.66699 11.333 13.834 21.166 21.501 29.499s17.5 14.166 29.5 17.499c4.66699 -1.33301 10.834 -3.5 18.501 -6.5s15.334 -6.33301 23.001 -10s14.334 -7.66699 20.001 -12s9.16699 -8.83301 10.5 -13.5c1.33301 -8 1.33301 -16.333 0 -25
s-3.16602 -17.334 -5.49902 -26.001l-7 -26c-2.33301 -8.66699 -3.83301 -17 -4.5 -25c-1.33301 -18 -1.5 -34.833 -0.5 -50.5s3.16699 -32.834 6.5 -51.501c1.33301 -40 2 -80.333 2 -121s0.666992 -81 2 -121l3.5 -39.5c1.66699 -19 1.5 -38.5 -0.5 -58.5
s-7.16699 -37.333 -15.5 -52s-22.166 -20.667 -41.499 -18c-19.333 1.33301 -35.333 6.33301 -48 15s-22.5 20.334 -29.5 35.001s-11.667 31.667 -14 51s-3.16602 40.666 -2.49902 63.999z" />
    <glyph glyph-name="two" unicode="2" horiz-adv-x="479" 
d="M332 -6c-22.667 1.33301 -42 2.83008 -58 4.49707s-30.167 3.66699 -42.5 6s-23.833 5.16602 -34.5 8.49902l-34 11c-10.667 4.66699 -20.667 9.5 -30 14.5s-16.833 10.667 -22.5 17s-8.83398 13.666 -9.50098 21.999s3 17.833 11 28.5c17.333 24 30.833 50.333 40.5 79
l28.5 82c7.33301 24 16.166 49.167 26.499 75.5s19.333 53 27 80s13.167 53.667 16.5 80s1.66602 51.5 -5.00098 75.5c-5.33301 26.667 -15.166 42.667 -29.499 48s-29.5 3.16602 -45.5 -6.50098s-31 -24.5 -45 -44.5s-23 -42 -27 -66
c-1.33301 -4 -2.33301 -8.83301 -3 -14.5s-0.833984 -11.5 -0.500977 -17.5s1.83301 -11.5 4.5 -16.5s6.66699 -9.16699 12 -12.5c0 -7.33301 -2.16699 -14 -6.5 -20s-9.5 -11 -15.5 -15s-12.167 -7 -18.5 -9s-11.5 -3 -15.5 -3c-10 -1.33301 -18 0.333984 -24 5.00098
s-10.5 11.334 -13.5 20.001s-4.5 18.334 -4.5 29.001s1 21.334 3 32.001c5.33301 18 14.333 39 27 63s28.334 46.833 47.001 68.5s40 39.834 64 54.501s50 22 78 22c14 0 28.333 -2.33301 43 -7s28.334 -11 41.001 -19s23.167 -17.667 31.5 -29s13.166 -23.333 14.499 -36
c7.33301 -35.333 8.5 -71 3.5 -107s-13.5 -71.167 -25.5 -105.5s-26.333 -66.833 -43 -97.5s-33 -58.334 -49 -83.001s-30.167 -45.667 -42.5 -63s-20.833 -29.666 -25.5 -36.999c10.667 -4 27.5 -7 50.5 -9s47 -3.66699 72 -5s48.333 -2.5 70 -3.5s36.834 -2.5 45.501 -4.5
c4 0 9 -0.5 15 -1.5s11.833 -2.66699 17.5 -5s10.334 -5.5 14.001 -9.5s5.5 -8.66699 5.5 -14c0 -1.33301 -0.833008 -5.5 -2.5 -12.5s-7 -14.667 -16 -23s-22.833 -15.666 -41.5 -21.999s-45 -8.83301 -79 -7.5z" />
    <glyph glyph-name="three" unicode="3" horiz-adv-x="464" 
d="M235 118c22 6.66699 39.668 18.3311 53.001 34.998s22 35.167 26 55.5s3 40.833 -3 61.5s-17.333 38.667 -34 54c-13.333 12.667 -28.166 20.334 -44.499 23.001s-32.833 4.83398 -49.5 6.50098s-32 4.83398 -46 9.50098s-25 15 -33 31
c-6.66699 10 -6.83398 20.167 -0.500977 30.5s15.5 20.833 27.5 31.5s25.333 21.834 40 33.501s27.5 23.834 38.5 36.501s18.167 25.834 21.5 39.501s0 28.5 -10 44.5c-2.66699 6 -8 9.33301 -16 10s-17 -0.166016 -27 -2.49902s-20.167 -6.33301 -30.5 -12
s-18.833 -12.167 -25.5 -19.5c-3.33301 -3.33301 -7.66602 -8.5 -12.999 -15.5s-11 -13.333 -17 -19s-12.5 -9.33398 -19.5 -11.001s-13.833 1.16602 -20.5 8.49902c-9.33301 10.667 -12.166 22.834 -8.49902 36.501s11 27.167 22 40.5s23.833 25.833 38.5 37.5
s28.667 20.5 42 26.5c29.333 11.333 56.166 16.5 80.499 15.5s45.166 -6.66699 62.499 -17s30.333 -24.833 39 -43.5s12 -39.667 10 -63c-2 -18 -7.33301 -36 -16 -54s-18.667 -35 -30 -51s-23.333 -30.5 -36 -43.5s-24.334 -22.833 -35.001 -29.5
c19.333 0.666992 39.833 -1.5 61.5 -6.5s42.667 -12.5 63 -22.5s39.166 -22.667 56.499 -38s31.166 -33 41.499 -53s16.5 -42.5 18.5 -67.5s-2 -51.833 -12 -80.5c-6 -17.333 -15.833 -33.5 -29.5 -48.5s-29.667 -28.333 -48 -40s-38.333 -21.5 -60 -29.5
s-42.834 -14 -63.501 -18c-25.333 -4 -49.166 -3.16699 -71.499 2.5s-42.666 14.5 -60.999 26.5s-34.666 26 -48.999 42s-25.833 32.333 -34.5 49s-14.334 33.167 -17.001 49.5s-1.66699 30.166 3 41.499c4.66699 14 9.16699 20.167 13.5 18.5s9.66602 -7.5 15.999 -17.5
l23.5 -37c9.33301 -14.667 21.333 -27.834 36 -39.501s32.334 -19.834 53.001 -24.501s45.334 -2.33398 74.001 6.99902z" />
    <glyph glyph-name="four" unicode="4" horiz-adv-x="430" 
d="M278 307c-0.666992 0.666992 -0.500977 -6.33398 0.499023 -21.001l4 -56c1.66699 -22.667 3 -47.334 4 -74.001s1.33301 -51.667 1 -75s-2 -43.333 -5 -60s-7.83301 -25.667 -14.5 -27c-8 -1.33301 -17 -0.833008 -27 1.5s-19.5 5.83301 -28.5 10.5s-17 10 -24 16
s-11.833 12.333 -14.5 19c-6.66699 16.667 -11.5 34.167 -14.5 52.5s-5 36.5 -6 54.5s-1.33301 36 -1 54s0.5 35.333 0.5 52c0 13.333 -0.166992 23.166 -0.5 29.499s-2 11 -5 14s-7.66699 5.16699 -14 6.5s-15.5 4 -27.5 8c-18 2.66699 -35.667 7.83398 -53 15.501
s-32.666 18.167 -45.999 31.5c-12 12 -15.833 26.333 -11.5 43s12 33.834 23 51.501s23.333 34.334 37 50.001s23.834 28.167 30.501 37.5c11.333 16.667 25 35 41 55s32.167 38.167 48.5 54.5s32.166 29.166 47.499 38.499s28.333 12 39 8
c2.66699 -6.66699 2.83398 -12.334 0.500977 -17.001s-5.83301 -9.5 -10.5 -14.5l-14.5 -15.5c-5 -5.33301 -8.83301 -12 -11.5 -20c6.66699 -10.667 12.834 -27.667 18.501 -51s10.667 -47.5 15 -72.5s7.66602 -48.167 9.99902 -69.5s3.5 -35.333 3.5 -42
c0 -0.666992 4 -0.666992 12 0s18 1.33398 30 2.00098s24.833 1.33398 38.5 2.00098s26.5 0.666992 38.5 0s22 -2.5 30 -5.5s12 -7.5 12 -13.5c0 -10.667 -6.5 -20.5 -19.5 -29.5s-28 -16.667 -45 -23s-34.333 -11.333 -52 -15s-30.834 -5.5 -39.501 -5.5zM74.999 405.999
c8 -2.66699 16.5 -6 25.5 -10s17.333 -6.66699 25 -8s14.167 -1 19.5 1s8 7.66699 8 17c0 18 -0.833008 36 -2.5 54s-2.5 34.667 -2.5 50l-36.5 -50c-11 -15.333 -23.167 -33.333 -36.5 -54z" />
    <glyph glyph-name="five" unicode="5" horiz-adv-x="539" 
d="M256 95c22.667 9.33301 40.9941 21.498 54.9941 36.498s25 30.5 33 46.5s13.667 31.167 17 45.5s5.66602 25.5 6.99902 33.5c1.33301 19.333 -3.83398 33.333 -15.501 42s-26 13.5 -43 14.5s-34.667 -1.16699 -53 -6.5s-33.5 -12.333 -45.5 -21
c-26.667 -25.333 -51 -40.333 -73 -45s-42.333 2.33301 -61 21c-12 10.667 -21.667 23.334 -29 38.001s-12.666 30 -15.999 46s-5.16602 32.167 -5.49902 48.5s0.166992 31.833 1.5 46.5c2.66699 19.333 6.33398 40.166 11.001 62.499s8.33398 43.166 11.001 62.499
c-7.33301 4 -14.333 8.5 -21 13.5s-11.667 10.5 -15 16.5s-4.16602 12.333 -2.49902 19s7.16699 13.334 16.5 20.001c14.667 10.667 29.834 17 45.501 19s31.167 1.66699 46.5 -1s30.666 -6 45.999 -10s30.333 -6.66699 45 -8c18 -2.66699 40.833 -2.33398 68.5 0.999023
s54.834 5.5 81.501 6.5s50 -1.16699 70 -6.5s31.333 -18 34 -38c0.666992 -7.33301 -5 -13.666 -17 -18.999s-27.667 -9.83301 -47 -13.5s-41 -6.83398 -65 -9.50098s-47.5 -4.66699 -70.5 -6s-44.167 -2.5 -63.5 -3.5s-34 -1.83301 -44 -2.5
c2.66699 -35.333 3.5 -70.666 2.5 -105.999s-0.166992 -72 2.5 -110c8 12.667 20.167 26.167 36.5 40.5s34.833 27.166 55.5 38.499s42.5 20.333 65.5 27s45.167 8.33398 66.5 5.00098s41.166 -12.833 59.499 -28.5s32.833 -39.5 43.5 -71.5
c9.33301 -29.333 14.666 -55.666 15.999 -78.999s-0.166992 -44.5 -4.5 -63.5s-11.166 -36.167 -20.499 -51.5s-20 -30 -32 -44c-16 -20 -34.833 -37.167 -56.5 -51.5s-44.834 -25.666 -69.501 -33.999s-50.167 -13.833 -76.5 -16.5s-52.166 -2.66699 -77.499 0
c-12.667 1.33301 -27 4 -43 8s-31.167 9.16699 -45.5 15.5s-26.166 13.833 -35.499 22.5s-13.333 18.667 -12 30c1.33301 10.667 9.33301 16 24 16s32.834 -1.16699 54.501 -3.5s45.334 -4 71.001 -5s50.167 3.16699 73.5 12.5z" />
    <glyph glyph-name="six" unicode="6" horiz-adv-x="565" 
d="M221 30c-21.333 12 -36.332 21.666 -44.999 28.999s-14.334 8.66602 -17.001 3.99902c-4.66699 -16.667 -7.16699 -31.667 -7.5 -45s-0.5 -24.666 -0.5 -33.999s-0.833008 -16.5 -2.5 -21.5s-5.83398 -7.5 -12.501 -7.5
c-3.33301 -1.33301 -7.66602 1.83398 -12.999 9.50098s-10 18.5 -14 32.5s-6.83301 30.833 -8.5 50.5s-0.833984 40.5 2.49902 62.5c0 3.33301 -3.16699 9 -9.5 17s-14 20.667 -23 38s-18.667 40.666 -29 69.999s-19.5 67.666 -27.5 114.999
c-2.66699 12.667 -4.83398 31.334 -6.50098 56.001s-1 51.834 2 81.501s9.83301 60.5 20.5 92.5s27 62 49 90c24 31.333 47 51.5 69 60.5s40 7.83301 54 -3.5c0 -6 -1.83301 -11.333 -5.5 -16s-8.5 -9.5 -14.5 -14.5l-20 -17c-7.33301 -6.33301 -14.333 -14.166 -21 -23.499
c-9.33301 -28 -17.166 -57 -23.499 -87s-9.5 -60.667 -9.5 -92c0.666992 -42 3.16699 -75.5 7.5 -100.5s8.83301 -44 13.5 -57s9 -21.333 13 -25s6.66699 -5.5 8 -5.5c2 6 7 13.333 15 22s17 17.5 27 26.5s20.167 17.667 30.5 26s19.166 14.833 26.499 19.5
c52 26 100 32.167 144 18.5s84 -41.834 120 -84.501c10.667 -13.333 18.334 -32.166 23.001 -56.499s4.33398 -50.333 -0.999023 -78s-16.833 -54.834 -34.5 -81.501s-43.5 -48.667 -77.5 -66c-40 -21.333 -76 -31 -108 -29s-63.333 10 -94 24zM211.001 194.999
c-0.666992 -2 1.16699 -6.16602 5.5 -12.499s10.833 -13.5 19.5 -21.5s18.834 -16.333 30.501 -25s24.334 -16.167 38.001 -22.5s28.334 -10.5 44.001 -12.5s31.167 -0.666992 46.5 4c12.667 3.33301 22.5 9.16602 29.5 17.499s11.833 17.5 14.5 27.5s3.66699 20.333 3 31
s-2.33398 20 -5.00098 28c-7.33301 23.333 -20.333 40.666 -39 51.999s-39.334 16.333 -62.001 15s-45.334 -8.66602 -68.001 -21.999s-41.667 -33 -57 -59z" />
    <glyph glyph-name="seven" unicode="7" horiz-adv-x="586" 
d="M514 312c-22 -4 -40.8408 -6 -56.5078 -6s-24.167 -2.66699 -25.5 -8l-9.5 -43l-14 -61c-5 -21.333 -10.167 -41.5 -15.5 -60.5s-10 -32.5 -14 -40.5l-15.5 -37.5c-5 -12.333 -10.167 -23.5 -15.5 -33.5s-11.166 -17.833 -17.499 -23.5s-13.5 -7.83398 -21.5 -6.50098
c-9.33301 1.33301 -16 9.16602 -20 23.499s-6.16699 32.333 -6.5 54s0.5 45.334 2.5 71.001s4.33301 50.167 7 73.5s5.33398 44.166 8.00098 62.499s4.66699 31.166 6 38.499c-10 2.66699 -23.333 4.83398 -40 6.50098s-34.334 3 -53.001 4l-57.5 3
c-19.667 1 -37.5 2.16699 -53.5 3.5s-29.333 3.33301 -40 6s-16.667 6.33398 -18 11.001s3.16699 10.5 13.5 17.5s23.5 13.5 39.5 19.5s33.333 11 52 15s35 5.66699 49 5c6 -1.33301 15.5 -2 28.5 -2s25.833 0.333008 38.5 1s23.834 1.5 33.501 2.5s14.5 2.16699 14.5 3.5
c8 38.667 12.833 76 14.5 112s4.83398 70.333 9.50098 103c-26 -0.666992 -52.667 -0.166992 -80 1.5s-54.666 3 -81.999 4s-54.5 0.666992 -81.5 -1s-53.833 -6.16699 -80.5 -13.5c-8.66699 14.667 -10.334 27.334 -5.00098 38.001s15.5 19.667 30.5 27
s33.667 13.166 56 17.499s46 7.5 71 9.5s50.333 3 76 3s49.5 -0.833008 71.5 -2.5s40.833 -3.66699 56.5 -6s26.167 -4.83301 31.5 -7.5c5.33301 -2 12.5 -6.5 21.5 -13.5s18 -15.333 27 -25s16.833 -19.667 23.5 -30s10.334 -19.833 11.001 -28.5
c-2 -31.333 -5.33301 -65.833 -10 -103.5l-13 -102.5c0 -1.33301 2.33301 -2.5 7 -3.5s10.334 -2 17.001 -3s13.834 -1.66699 21.501 -2s14.834 -0.5 21.501 -0.5c11.333 -0.666992 21.833 -2.5 31.5 -5.5s18.167 -6.66699 25.5 -11s13.333 -9.16602 18 -14.499
s7.33398 -10.333 8.00098 -15c0 -6 -3.83301 -10.5 -11.5 -13.5s-16.667 -5.16699 -27 -6.5s-21 -2.5 -32 -3.5s-19.833 -1.83301 -26.5 -2.5z" />
    <glyph glyph-name="eight" unicode="8" horiz-adv-x="416" 
d="M378 638c5.33301 -21.333 2.83203 -46.5029 -7.50098 -75.5029s-23.333 -57.5 -39 -85.5s-31.167 -53.667 -46.5 -77s-25 -40.333 -29 -51c0 -1.33301 6.33301 -8.33301 19 -21s26.667 -28.834 42 -48.501s29.833 -41.5 43.5 -65.5s21.334 -48.167 23.001 -72.5
s-5.16602 -47.833 -20.499 -70.5s-44 -42.334 -86 -59.001c-14 -5.33301 -31 -8.83301 -51 -10.5s-39.667 -1.33398 -59 0.999023s-37 7 -53 14s-26.333 16.5 -31 28.5c-6 11.333 -8.33301 26.333 -7 45s4.66602 38.834 9.99902 60.501s12 43.834 20 66.501
s16 43.834 24 63.501l21.5 51.5c6.33301 14.667 10.5 25 12.5 31c0 0.666992 -3.83301 3.16699 -11.5 7.5s-16.834 10.333 -27.501 18s-22.167 17.167 -34.5 28.5s-23 24.166 -32 38.499s-15.667 30.333 -20 48s-3.83301 37.167 1.5 58.5
c3.33301 16.667 9.83301 32.334 19.5 47.001s19.667 27.834 30 39.501s19.5 21.5 27.5 29.5s12 13.667 12 17s-2.83301 5.5 -8.5 6.5s-12.334 1.33301 -20.001 1s-15.5 -1.16602 -23.5 -2.49902s-14 -3 -18 -5c5.33301 24 16.5 41.333 33.5 52s36.833 16.334 59.5 17.001
s46.834 -3 72.501 -11s49.334 -18 71.001 -30s40.167 -25.667 55.5 -41s24.333 -30 27 -44zM224.999 287.997l-22.998 -53.502l-24.5 -59c-7.66699 -19 -13.5 -35.833 -17.5 -50.5s-4.33301 -24 -1 -28c4 -4.66699 12.833 -5.66699 26.5 -3s28.167 7.33398 43.5 14.001
s29.666 14.834 42.999 24.501s21.666 19.5 24.999 29.5c2.66699 8.66699 2.33398 18.5 -0.999023 29.5s-8.83301 22.167 -16.5 33.5s-16.334 22.5 -26.001 33.5s-19.167 20.833 -28.5 29.5zM235.001 563.995l8.00293 31c2.66699 10 4.16699 19 4.5 27
s-1.33398 14.833 -5.00098 20.5s-9.83398 9.5 -18.501 11.5c-8.66699 2.66699 -20.5 0.833984 -35.5 -5.49902s-29.833 -15 -44.5 -26s-27.667 -23.333 -39 -37s-17.333 -26.5 -18 -38.5c0 -14.667 2.66699 -28.334 8 -41.001s12.5 -24.334 21.5 -35.001
s19.5 -20.167 31.5 -28.5s24.333 -15.5 37 -21.5c4 12.667 8.33301 24.667 13 36l14 34c4.66699 11.333 8.83398 23 12.501 35s7.16699 24.667 10.5 38c2 6.66699 3.16699 10 3.5 10s0.166016 -1.5 -0.500977 -4.5s-1.66699 -6.66699 -3 -11l-3 -10
c-0.666992 -2.33301 -0.833984 -2.66602 -0.500977 -0.999023s1.5 7.16699 3.5 16.5z" />
    <glyph glyph-name="nine" unicode="9" horiz-adv-x="541" 
d="M122 39c-15.333 6 -30.3369 13.6611 -45.0039 22.9941s-27 19.333 -37 30s-17 21.167 -21 31.5s-3 19.166 3 26.499c6 8 16 10.667 30 8s31.333 -7 52 -13s44.334 -12.333 71.001 -19s55.667 -10 87 -10c30 0 55.333 7.66699 76 23s36.667 34.666 48 57.999
s17.833 48.666 19.5 75.999s-1.5 53 -9.5 77l-16.5 36.5c-5.66699 12.333 -15.167 20.833 -28.5 25.5c-3.33301 -3.33301 -6.66602 -9.16602 -9.99902 -17.499s-7.5 -17.5 -12.5 -27.5s-11.5 -19.833 -19.5 -29.5s-18.167 -17 -30.5 -22s-27.333 -6.66699 -45 -5
s-38.834 8.5 -63.501 20.5c-32 14 -59.333 32.833 -82 56.5s-37.5 50.334 -44.5 80.001s-5.16699 61.334 5.5 95.001s33.334 67.834 68.001 102.501c14.667 16 33.334 25.667 56.001 29s46 1.83301 70 -4.5s46.833 -17.333 68.5 -33s38.5 -34.834 50.5 -57.501
c6 -12 8 -24.667 6 -38s-5.33301 -25.666 -10 -36.999s-9.83398 -21 -15.501 -29l-10.5 -15c2.66699 -1.33301 10.334 -4.16602 23.001 -8.49902s26.834 -10 42.501 -17s31 -15.667 46 -26s26.167 -22.166 33.5 -35.499c6.66699 -12 12.667 -25.333 18 -40
s9.66602 -29.667 12.999 -45s5.5 -30.166 6.5 -44.499s1.16699 -26.833 0.5 -37.5c-5.33301 -34 -13.333 -63.167 -24 -87.5s-26.667 -46.166 -48 -65.499c-19.333 -22.667 -40.833 -39.167 -64.5 -49.5s-49.167 -16.166 -76.5 -17.499s-56.166 1.16699 -86.499 7.5
s-61.5 14.833 -93.5 25.5zM270.996 383.994c9.33301 6.66699 17.168 14.6699 23.501 24.0029s10.333 18.5 12 27.5s0.5 17.5 -3.5 25.5s-11.333 14.333 -22 19c-8.66699 4 -14.5 9.5 -17.5 16.5s-5 14.667 -6 23s-2.33301 17 -4 26s-5.83398 17.667 -12.501 26
s-17 15.666 -31 21.999s-33.667 11.166 -59 14.499c-11.333 -11.333 -18.666 -26.166 -21.999 -44.499s-3.33301 -37.833 0 -58.5s9.16602 -40.667 17.499 -60s18.833 -35.333 31.5 -48s27 -20.834 43 -24.501s32.667 0.166016 50 11.499z" />
    <glyph glyph-name="colon" unicode=":" horiz-adv-x="330" 
d="M256 442c-4 -12 -9.00195 -23.333 -15.002 -34s-13.5 -19.167 -22.5 -25.5s-19 -9.83301 -30 -10.5s-23.5 2.66602 -37.5 9.99902l-27 14.5c-9.33301 5 -17.833 10.833 -25.5 17.5s-14 14.5 -19 23.5s-7.5 20.5 -7.5 34.5c0 9.33301 5 16.833 15 22.5s22.333 9.5 37 11.5
s30.334 2.33301 47.001 1s31.834 -4.66602 45.501 -9.99902s24.5 -12.5 32.5 -21.5s10.333 -20.167 7 -33.5zM236.998 39c-11.333 -12.667 -23.667 -22.835 -37 -30.502s-26.833 -12 -40.5 -13s-27.167 2 -40.5 9s-25.333 18.5 -36 34.5c-6 10 -9.66699 20.833 -11 32.5
s-0.166016 22.667 3.50098 33s9.83398 19.5 18.501 27.5s19.667 13.333 33 16c14 2.66699 24.833 2.83398 32.5 0.500977s13 -6.16602 16 -11.499s3.66699 -12.166 2 -20.499s-4.83398 -17.5 -9.50098 -27.5c1.33301 -2.66699 6.33301 -4.33398 15 -5.00098s17.667 -2 27 -4
s17.166 -6 23.499 -12s7.5 -15.667 3.5 -29z" />
    <glyph glyph-name="semicolon" unicode=";" horiz-adv-x="316" 
d="M108 437c17.333 30 35.001 47.499 53.001 52.499s37.667 -1.16699 59 -18.5c8 -6 14.5 -16 19.5 -30s6.33301 -28.5 4 -43.5s-9.33301 -28.833 -21 -41.5s-30.167 -20.334 -55.5 -23.001c-11.333 -1.33301 -22.333 0.833984 -33 6.50098s-19.334 13.334 -26.001 23.001
s-10.5 21 -11.5 34s2.83301 26.5 11.5 40.5zM211.001 81.999c8.66699 -6.66699 14.667 -14.167 18 -22.5s4.5 -17.333 3.5 -27s-3.66699 -19.667 -8 -30s-9.83301 -20.5 -16.5 -30.5c-11.333 -17.333 -24.166 -33.833 -38.499 -49.5s-30.5 -29.5 -48.5 -41.5
c-10.667 -7.33301 -21.334 -12.333 -32.001 -15s-19.334 -2.83398 -26.001 -0.500977s-10.167 7.5 -10.5 15.5s4.5 19.333 14.5 34c12 16.667 20.333 32.334 25 47.001s8.5 28.5 11.5 41.5s6.5 25.167 10.5 36.5s11.333 22 22 32c14.667 13.333 27.834 20.333 39.501 21
s23.5 -3 35.5 -11z" />
    <glyph glyph-name="less" unicode="&#x3c;" horiz-adv-x="321" 
d="M210 106c-26.667 10.667 -52.6689 25.3301 -78.002 43.9971s-45.833 39.167 -61.5 61.5s-24 45.333 -25 69s9.5 45.5 31.5 65.5c11.333 10 24.333 22.167 39 36.5s30.334 27.333 47.001 39s33.667 20.334 51 26.001s34.666 5.16699 51.999 -1.5
c16.667 -7.33301 25.834 -16.166 27.501 -26.499s-1.33301 -21.666 -9 -33.999s-18.667 -25.166 -33 -38.499s-29 -25.833 -44 -37.5l-41.5 -32.5c-12.667 -10 -21.667 -17.667 -27 -23c7.33301 -4.66699 17.5 -10.5 30.5 -17.5l41.5 -23.5
c14.667 -8.66699 29.334 -18 44.001 -28s27.334 -20.333 38.001 -31l11 -15.5c4 -5.66699 7.16699 -11 9.5 -16s3.66602 -9.83301 3.99902 -14.5s-1.16699 -8.33398 -4.5 -11.001c-10 -7.33301 -24.833 -9.5 -44.5 -6.5s-39.167 8.16699 -58.5 15.5z" />
    <glyph glyph-name="equal" unicode="=" 
d="M77 232c14.667 10.667 34.3311 18.668 58.998 24.001s51.334 8.5 80.001 9.5s57.5 0 86.5 -3s55.333 -7.16699 79 -12.5s43 -11.5 58 -18.5s22.5 -14.167 22.5 -21.5c0 -4 -6 -8.16699 -18 -12.5s-27.667 -8.83301 -47 -13.5s-41.666 -8.83398 -66.999 -12.501
s-51.5 -6.5 -78.5 -8.5s-53.667 -3 -80 -3s-50.5 2 -72.5 6c-5.33301 2.66699 -10.5 7.16699 -15.5 13.5s-9 13 -12 20s-4.16699 13.5 -3.5 19.5s3.66699 10.333 9 13zM54.9971 330.001c0 17.333 7.33203 31.002 21.999 41.002s33 15 55 15
c18 3.33301 38 5.16602 60 5.49902s44.167 -0.333984 66.5 -2.00098s43.833 -4.16699 64.5 -7.5s39.334 -6.83301 56.001 -10.5s30.334 -7.16699 41.001 -10.5s17 -6 19 -8c6 -6 7 -13.667 3 -23s-12.833 -17.833 -26.5 -25.5s-32.334 -12.667 -56.001 -15
s-51.834 0.5 -84.501 8.5h-153c-8.66699 0 -17.5 0.166992 -26.5 0.5s-17 1.5 -24 3.5s-12.167 5.16699 -15.5 9.5s-3.66602 10.5 -0.999023 18.5z" />
    <glyph glyph-name="greater" unicode="&#x3e;" horiz-adv-x="354" 
d="M115 141c8 14 19.1699 29.8311 33.5029 47.498l43 50.5l38.5 41.5c11.333 11.667 18 18.834 20 21.501c-4.66699 2.66699 -13 7 -25 13l-40 21c-14.667 8 -28.834 16.667 -42.501 26s-24.334 19 -32.001 29s-10.5 19.833 -8.5 29.5s11.333 18.834 28 27.501
c14.667 8 30.667 9.33301 48 4s34.333 -13.5 51 -24.5s32.167 -23 46.5 -36s25.833 -23.833 34.5 -32.5c21.333 -21.333 33.5 -41.666 36.5 -60.999s0 -37.833 -9 -55.5s-22 -34 -39 -49s-34.667 -28.833 -53 -41.5s-36 -24 -53 -34s-29.5 -18.333 -37.5 -25
c-8 -6 -15.5 -8.33301 -22.5 -7s-12.667 4.66602 -17 9.99902s-6.83301 12 -7.5 20s1.66602 16.333 6.99902 25z" />
    <glyph glyph-name="question" unicode="?" horiz-adv-x="412" 
d="M178 401c0.666992 4.66699 4.50488 10 11.5049 16s15.667 13 26 21s21.5 17.5 33.5 28.5s23.333 24.167 34 39.5l21 32.5c6 9.66699 10.833 19.667 14.5 30s6 21.333 7 33s0.166992 25.167 -2.5 40.5c-1.33301 10.667 -6.16602 16.834 -14.499 18.501
s-18.833 0.166992 -31.5 -4.5s-26.334 -11.667 -41.001 -21s-28.834 -19.333 -42.501 -30s-25.834 -21.167 -36.501 -31.5s-18 -19.166 -22 -26.499c-4 -6 -8 -15.167 -12 -27.5s-8.83301 -23.666 -14.5 -33.999s-12.334 -17.5 -20.001 -21.5s-16.834 -1 -27.501 9
c-17.333 15.333 -27 31.166 -29 47.499s1.66699 35.166 11 56.499c9.33301 19.333 21 38.5 35 57.5s29.667 36.5 47 52.5s36.333 29.5 57 40.5s42 18.5 64 22.5c24 4 45.667 1.83301 65 -6.5s35.5 -20.5 48.5 -36.5s22.333 -34.667 28 -56s6.83398 -42.666 3.50098 -63.999
c-1.33301 -11.333 -7.5 -26.833 -18.5 -46.5s-23.833 -39.834 -38.5 -60.501s-29.334 -39.667 -44.001 -57s-26.334 -28.666 -35.001 -33.999c-6.66699 -4.66699 -10.167 -10.334 -10.5 -17.001s0.833984 -13.834 3.50098 -21.501s6.16699 -15.5 10.5 -23.5s7.5 -16 9.5 -24
c1.33301 -8 3.5 -18.333 6.5 -31s4.33301 -25.167 4 -37.5s-3.83301 -23 -10.5 -32s-19 -13.5 -37 -13.5c-12 0.666992 -21.833 5.16699 -29.5 13.5s-13.667 19 -18 32s-7.33301 27.5 -9 43.5s-2.5 31.667 -2.5 47s0.666992 29.833 2 43.5s2.66602 24.5 3.99902 32.5z
M222.005 77c10 2.66699 19.834 1.16797 29.501 -4.49902s17 -12.834 22 -21.501s6.5 -17.667 4.5 -27s-9.66699 -16.333 -23 -21c-13.333 -4 -25 -2.66699 -35 4s-17.333 14.667 -22 24s-5.33398 18.833 -2.00098 28.5s12 15.5 26 17.5z" />
    <glyph glyph-name="at" unicode="@" horiz-adv-x="815" 
 />
    <glyph glyph-name="A" unicode="A" horiz-adv-x="618" 
d="M537 -137c-8 -1.33301 -14.3291 0.167969 -18.9961 4.50098s-8.33398 10 -11.001 17s-4.33398 14.667 -5.00098 23s-1 16.166 -1 23.499c0 6.66699 -0.833008 20.167 -2.5 40.5s-4.5 44.166 -8.5 71.499s-9.66699 56.666 -17 87.999s-17 61 -29 89
c-2.66699 5.33301 -15.667 6.33301 -39 3s-53 -5 -89 -5c-11.333 0.666992 -22.5 0.5 -33.5 -0.5s-20.833 -2.16699 -29.5 -3.5s-15.834 -2.66602 -21.501 -3.99902s-8.5 -2.33301 -8.5 -3l-2.5 -33.5c-1 -13.667 -2.66699 -28.167 -5 -43.5
s-5.66602 -30.666 -9.99902 -45.999s-10.166 -29 -17.499 -41s-16.333 -21.667 -27 -29s-23.667 -10.333 -39 -9c-10 0.666992 -17.167 10.667 -21.5 30s-7.33301 41.333 -9 66s-2.16699 48.167 -1.5 70.5s1 36.833 1 43.5c-36.667 4.66699 -61.5 11 -74.5 19
s-17.5 16.167 -13.5 24.5s15 16.166 33 23.499s40 13.333 66 18c2.66699 24 5.66699 54 9 90s8.5 72.667 15.5 110s16.667 72.5 29 105.5s29.166 58.5 50.499 76.5c11.333 8.66699 26 11.667 44 9s36.833 -9.66699 56.5 -21s38.834 -26 57.501 -44s34.667 -38 48 -60
c8 -14.667 16.5 -33.667 25.5 -57s17.667 -47.166 26 -71.499l23.5 -67.5c7.33301 -20.667 13.333 -35.667 18 -45c1.33301 -2.66699 6.66602 -3.66699 15.999 -3s19.5 0.666992 30.5 0s21.167 -3 30.5 -7s14.333 -12 15 -24c0.666992 -10 -3.16602 -18.833 -11.499 -26.5
s-17.5 -14 -27.5 -19s-19.333 -8.83301 -28 -11.5s-13 -4.33398 -13 -5.00098l23 -126.5c7.33301 -42.333 12.666 -80.666 15.999 -114.999s3.66602 -62.833 0.999023 -85.5s-9.33398 -35.667 -20.001 -39zM261.004 599.001
c-6.66699 -4.66699 -12.002 -13.3291 -16.002 -25.9961s-7 -27.834 -9 -45.501s-3.5 -37 -4.5 -58s-1.5 -41.667 -1.5 -62v-57v-44.5c2.66699 -0.666992 9.33398 -1 20.001 -1s22.834 0.166992 36.501 0.5s28.167 1 43.5 2s29.333 2.16699 42 3.5s23 2.66602 31 3.99902
s12 2.66602 12 3.99902c-1.33301 9.33301 -5 23.333 -11 42s-13.5 39.167 -22.5 61.5s-19 45 -30 68s-22 43.333 -33 61s-21.667 31.167 -32 40.5s-18.833 11.666 -25.5 6.99902z" />
    <glyph glyph-name="B" unicode="B" horiz-adv-x="491" 
d="M288 391c29.333 1.33301 55.165 -3.16504 77.498 -13.498s41 -24.666 56 -42.999s26.333 -39.333 34 -63s11.834 -47.5 12.501 -71.5s-2.16602 -47.167 -8.49902 -69.5s-15.833 -41.5 -28.5 -57.5c-18.667 -21.333 -40.667 -38.5 -66 -51.5s-51.166 -20.333 -77.499 -22
s-51.833 3 -76.5 14s-45.334 29.5 -62.001 55.5c-3.33301 4.66699 -5.16602 5.5 -5.49902 2.5s-0.333008 -7.83301 0 -14.5s0.166016 -14.334 -0.500977 -23.001s-2.5 -16.334 -5.5 -23.001s-8.33301 -11.5 -16 -14.5s-18.167 -2.16699 -31.5 2.5
c-19.333 5.33301 -33.833 14.833 -43.5 28.5s-16.834 28.5 -21.501 44.5s-7.66699 31.667 -9 47s-2.66602 27.333 -3.99902 36c-0.666992 30 -0.333984 58 0.999023 84s3.5 51.5 6.5 76.5s7.33301 50.333 13 76s12.5 52.834 20.5 81.501c6 22 12.833 42.833 20.5 62.5
s16.834 38.334 27.501 56.001s23.167 34.5 37.5 50.5s31.5 31 51.5 45c21.333 14 44.5 20.667 69.5 20s48 -6.83398 69 -18.501s37.5 -27.834 49.5 -48.501s15.667 -44 11 -70c-4 -19.333 -9.66699 -37.5 -17 -54.5s-15.5 -33 -24.5 -48s-18.667 -28.833 -29 -41.5
s-20.5 -24.334 -30.5 -35.001zM303.999 608.002c-10 4.66699 -20.5029 2.83203 -31.5029 -5.50098s-22 -20.333 -33 -36s-21.333 -33.334 -31 -53.001s-17.5 -38 -23.5 -55s-9.83301 -31.167 -11.5 -42.5s-0.166992 -16.666 4.5 -15.999c20.667 2 39.334 8.33301 56.001 19
s30.834 23.5 42.501 38.5s21 30.833 28 47.5s11.667 32.334 14 47.001s2.33301 27.167 0 37.5s-7.16602 16.5 -14.499 18.5zM369.996 153c8.66699 22.667 12.3311 45.334 10.998 68.001s-6 43.167 -14 61.5s-18.667 33.5 -32 45.5s-27 18.667 -41 20
c-16.667 2.66699 -32 2.83398 -46 0.500977s-26.5 -5.83301 -37.5 -10.5s-20.167 -10 -27.5 -16s-12.333 -11.667 -15 -17c-5.33301 -11.333 -9.5 -24.5 -12.5 -39.5s-3.83301 -31.167 -2.5 -48.5c8 6.66699 17.5 12 28.5 16s21.5 7 31.5 9s19 2.5 27 1.5
s13.333 -3.16699 16 -6.5c4.66699 -4 4.5 -7.33301 -0.5 -10l-21 -11.5c-9 -5 -18.5 -11.833 -28.5 -20.5s-18 -21.334 -24 -38.001c-4 -13.333 -4.5 -25.5 -1.5 -36.5s11.833 -20.167 26.5 -27.5c13.333 -6.66699 28.5 -9.83398 45.5 -9.50098s33.333 3.33301 49 9
s29.834 13.667 42.501 24s21.334 22.5 26.001 36.5z" />
    <glyph glyph-name="C" unicode="C" horiz-adv-x="526" 
d="M512 238c2 -4 2.16113 -12.6641 0.494141 -25.9971s-4 -27.5 -7 -42.5s-6.16699 -29 -9.5 -42s-6 -20.833 -8 -23.5c-13.333 -17.333 -28.333 -34.333 -45 -51s-35.667 -29.334 -57 -38.001c-35.333 -14 -70.166 -19.833 -104.499 -17.5s-66.333 11.166 -96 26.499
s-56.5 36.166 -80.5 62.499s-43.333 56.166 -58 89.499c-14 31.333 -23.167 67.333 -27.5 108s-3.66602 81.5 2.00098 122.5s16.334 79.5 32.001 115.5s37.167 65 64.5 87c28.667 22.667 57.667 37.5 87 44.5s57.666 9 84.999 6s52.666 -9.83301 75.999 -20.5s43 -22 59 -34
l24.5 -18c11.667 -8.66699 21.334 -17.834 29.001 -27.501s10.667 -18.167 9 -25.5s-13.167 -11.333 -34.5 -12c-14.667 -0.666992 -28.667 0.333008 -42 3s-26.666 5.83398 -39.999 9.50098s-26.666 7 -39.999 10s-27.333 4.5 -42 4.5c-76.667 0 -124 -52.333 -142 -157
c-2.66699 -16 -5.16699 -34.5 -7.5 -55.5s-3.66602 -43 -3.99902 -66s0.833984 -45.5 3.50098 -67.5s7.5 -42 14.5 -60s16.667 -32.667 29 -44s28.5 -17.666 48.5 -18.999c18 -1.33301 35.5 0.833984 52.5 6.50098s33.333 13.334 49 23.001s30.667 20.167 45 31.5
s27.833 22.666 40.5 33.999c2 2 7.16699 8.16699 15.5 18.5s17.833 20.166 28.5 29.499s20.667 16.333 30 21s16 2.66699 20 -6c2 -4 3 -6.16699 3 -6.5s-0.166992 0 -0.5 1s-0.833008 2.16699 -1.5 3.5z" />
    <glyph glyph-name="D" unicode="D" horiz-adv-x="562" 
d="M422 376c-0.666992 18 -3.66895 38.1709 -9.00195 60.5039s-12.833 44.166 -22.5 65.499s-21.334 40.5 -35.001 57.5s-29.167 29.167 -46.5 36.5c-14 6 -28.5 11 -43.5 15s-28.833 5.16699 -41.5 3.5s-23.167 -7 -31.5 -16s-12.166 -23.833 -11.499 -44.5
c0.666992 -34 1.66699 -68.167 3 -102.5s2.33301 -68.833 3 -103.5s0.5 -69.334 -0.5 -104.001s-3.5 -69.334 -7.5 -104.001c-2 -17.333 -4.5 -35 -7.5 -53s-6.83301 -34.667 -11.5 -50s-10.5 -28 -17.5 -38s-15.5 -15.667 -25.5 -17
c-13.333 -0.666992 -24.166 3.33301 -32.499 12s-15.166 20.167 -20.499 34.5s-9.33301 30.166 -12 47.499s-4.5 34.5 -5.5 51.5s-1.5 32.833 -1.5 47.5s-0.333008 26 -1 34c-1.33301 48 -1.66602 95.5 -0.999023 142.5s1.66699 94.167 3 141.5
c0 8 -0.833008 18.5 -2.5 31.5s-3.16699 26.667 -4.5 41s-2 28.5 -2 42.5s1.66699 26.5 5 37.5s9 19.833 17 26.5s19 9.33398 33 8.00098c12.667 -1.33301 25.5 -1 38.5 1s26.167 4.16699 39.5 6.5s27 4.16602 41 5.49902s28.333 1 43 -1c16 -2 33.167 -6.83301 51.5 -14.5
s36.5 -16.5 54.5 -26.5s35 -21 51 -33s29.333 -23.333 40 -34c30 -32.667 51.167 -69 63.5 -109s17.833 -80 16.5 -120s-8.33301 -78.167 -21 -114.5s-29 -66.833 -49 -91.5c-25.333 -31.333 -55.5 -56.666 -90.5 -75.999s-71.5 -30.666 -109.5 -33.999
c-6.66699 -1.33301 -14 -2 -22 -2s-15.5 0.5 -22.5 1.5s-12.833 3 -17.5 6s-7 7.5 -7 13.5s6 11 18 15l44 14.5c17.333 5.66699 36 13.167 56 22.5s38 22.333 54 39c23.333 25.333 39.666 57.666 48.999 96.999s12.333 82.666 9 129.999z" />
    <glyph glyph-name="E" unicode="E" horiz-adv-x="469" 
d="M439 141c6.66699 -4.66699 8.50098 -12.5029 5.50098 -23.5029s-9.33301 -22.833 -19 -35.5s-22.167 -24.834 -37.5 -36.501s-32.333 -20.834 -51 -27.501c-16 -6 -32.667 -11.167 -50 -15.5s-35.166 -6.83301 -53.499 -7.5s-37.5 1 -57.5 5s-40.333 11.667 -61 23
c-43.333 22.667 -72 49.667 -86 81s-18.167 63.666 -12.5 96.999s18.5 65.5 38.5 96.5s42.333 57.167 67 78.5c-36 16 -61 36.167 -75 60.5s-20.333 50 -19 77s8.83301 54 22.5 81s30.667 51.333 51 73s42.333 39 66 52s46.167 18.833 67.5 17.5
c20 -1.33301 40.5 -6.16602 61.5 -14.499s39.5 -17.833 55.5 -28.5s27.667 -21.5 35 -32.5s7.66602 -19.833 0.999023 -26.5c-4 -4 -10.5 -4.16699 -19.5 -0.5l-34.5 13.5c-14 5.33301 -30.5 10.333 -49.5 15s-40.167 6.33398 -63.5 5.00098c-36 -2 -61.5 -14.5 -76.5 -37.5
s-23.833 -52.5 -26.5 -88.5c-1.33301 -22 1.16699 -40.667 7.5 -56s13.666 -27.666 21.999 -36.999s16.333 -15.833 24 -19.5s12.5 -4.83398 14.5 -3.50098c24 20 49.5 36.333 76.5 49s52.5 20.5 76.5 23.5s44.667 0.666992 62 -7s28 -22.167 32 -43.5
c-0.666992 -11.333 -6 -21.666 -16 -30.999s-22.667 -17.666 -38 -24.999s-32 -14 -50 -20s-34.667 -11 -50 -15s-28.333 -7.16699 -39 -9.5s-16.334 -3.83301 -17.001 -4.5c-17.333 -12.667 -34.5 -27 -51.5 -43s-29.5 -36.333 -37.5 -61
c-7.33301 -22.667 -7.5 -43 -0.5 -61s19 -32.5 36 -43.5s37.833 -18.333 62.5 -22s51.334 -2.5 80.001 3.5c10 1.33301 21 4.33301 33 9s24 8.83398 36 12.501s23.167 6.33398 33.5 8.00098s18.5 0.166992 24.5 -4.5zM360.001 443.997
c-15.333 9.33301 -30.668 9.66699 -46.001 1s-32.333 -21.667 -51 -39c8.66699 0.666992 19.334 2.5 32.001 5.5s24.5 6.5 35.5 10.5s19.667 8.16699 26 12.5s7.5 7.5 3.5 9.5z" />
    <glyph glyph-name="F" unicode="F" horiz-adv-x="426" 
d="M285 -3c-2 -12 -8.49902 -18.5029 -19.499 -19.5029s-23.333 1.33301 -37 7s-27 14 -40 25s-22.5 22.833 -28.5 35.5c-5.33301 10.667 -10.166 23.834 -14.499 39.501s-8 32 -11 49s-5.66699 33.667 -8 50s-3.83301 30.5 -4.5 42.5
c-3.33301 32 -5.16602 56.5 -5.49902 73.5s-4.16602 25.5 -11.499 25.5c-8 0 -18.667 1.83301 -32 5.5s-24.833 8.33398 -34.5 14.001s-15.5 11.5 -17.5 17.5s3.66699 11.667 17 17l35 6c12 2 24 4.33301 36 7c3.33301 19.333 6.66602 40.666 9.99902 63.999
s7 44.666 11 63.999c8 32 19.833 59.333 35.5 82s34 40.667 55 54s44 22.166 69 26.499s51.167 4.5 78.5 0.5c9.33301 -1.33301 22.5 -4.16602 39.5 -8.49902s34.333 -9.83301 52 -16.5s33.834 -14.167 48.501 -22.5s24.334 -17.166 29.001 -26.499
c2.66699 -9.33301 0.833984 -16 -5.49902 -20s-15 -6.16699 -26 -6.5s-23.667 0.5 -38 2.5s-28 4.33301 -41 7s-24.5 5.33398 -34.5 8.00098l-19 5.00098c-28 8 -51 9.66699 -69 5s-32.333 -13.334 -43 -26.001s-18.5 -27.834 -23.5 -45.501s-8.33301 -35.167 -10 -52.5
s-2.33398 -33.5 -2.00098 -48.5s0.166016 -26.167 -0.500977 -33.5c7.33301 0.666992 20.5 0.5 39.5 -0.5s38.167 -3.33301 57.5 -7s36.166 -8.66699 50.499 -15s20.833 -14.166 19.5 -23.499c0 -3.33301 -7.33301 -6.66602 -22 -9.99902s-31.334 -6.5 -50.001 -9.5
s-36.834 -5.66699 -54.501 -8s-29.834 -3.83301 -36.501 -4.5c-2 -10 -2 -28.167 0 -54.5s5.5 -55.666 10.5 -87.999s11.333 -65.333 19 -99s16.5 -62.834 26.5 -87.501z" />
    <glyph glyph-name="G" unicode="G" horiz-adv-x="579" 
d="M428 -186c-18 -14 -38.1689 -24.1709 -60.502 -30.5039s-44 -8.5 -65 -6.5s-39.167 8.16699 -54.5 18.5s-25 25.166 -29 44.499c-3.33301 20 -3.33301 39.167 0 57.5s9.16602 35.833 17.499 52.5s19.166 32.834 32.499 48.501s28 31.167 44 46.5
c18.667 17.333 37.667 32.5 57 45.5l55 36.5v47.5c0 20.333 -0.166992 42.333 -0.5 66s-1.33301 47.834 -3 72.501s-3.83398 47.334 -6.50098 68.001c-14 -39.333 -28.5 -77.833 -43.5 -115.5s-32 -72.167 -51 -103.5s-40.833 -58.666 -65.5 -81.999
s-53.667 -40.333 -87 -51c-25.333 -8 -47 -8.66699 -65 -2s-32.833 18.334 -44.5 35.001s-20.5 36.834 -26.5 60.501s-9.66699 48.5 -11 74.5s-0.666016 51.833 2.00098 77.5s7 48.5 13 68.5c10 34.667 23.833 70.834 41.5 108.501s38.167 72.834 61.5 105.501
s48.833 61 76.5 85s56.167 39.667 85.5 47c20.667 4.66699 39.5 4.66699 56.5 0s32 -12 45 -22s24 -21.5 33 -34.5s15.833 -25.5 20.5 -37.5s7 -22.333 7 -31s-2.33301 -13.334 -7 -14.001c-9.33301 -2 -19.666 3.66699 -30.999 17s-27 29.333 -47 48
c-7.33301 6 -16.5 8.5 -27.5 7.5s-22.833 -4.83301 -35.5 -11.5s-25.334 -16 -38.001 -28s-24 -26 -34 -42c-19.333 -28.667 -36 -56.834 -50 -84.501s-25.167 -55.667 -33.5 -84s-14.166 -58 -17.499 -89s-4.33301 -63.833 -3 -98.5c0 -31.333 4.16699 -52.333 12.5 -63
s18.833 -13.834 31.5 -9.50098s26.834 14.5 42.501 30.5s31 35.167 46 57.5s28.833 46.333 41.5 72s22.334 49.834 29.001 72.501c5.33301 18 12.833 37 22.5 57s21 36.833 34 50.5s27.833 22.334 44.5 26.001s35 -1.5 55 -15.5
c6.66699 -4.66699 12.167 -14.334 16.5 -29.001s7.83301 -31.834 10.5 -51.501s4.66699 -40.667 6 -63s2.16602 -43.833 2.49902 -64.5s0.333008 -39.334 0 -56.001s-0.833008 -29 -1.5 -37c8 4.66699 17 10.5 27 17.5s20 12.667 30 17s19.5 6.83301 28.5 7.5
s16.833 -2.66602 23.5 -9.99902c6 -6 5.83301 -13.333 -0.5 -22s-15.666 -18 -27.999 -28s-26.166 -20.5 -41.499 -31.5s-29 -21.5 -41 -31.5c-1.33301 -1.33301 -2.5 -12 -3.5 -32s-4.33301 -44 -10 -72s-15.167 -57 -28.5 -87s-33.333 -55.333 -60 -76zM426.998 36.9961
c-16.667 -10 -32.335 -21.335 -47.002 -34.002c-12.667 -11.333 -25.167 -24.666 -37.5 -39.999s-21.5 -32.666 -27.5 -51.999c-4 -20.667 -4 -35.834 0 -45.501s10.5 -15 19.5 -16s19.333 1.83301 31 8.5s22.834 16 33.501 28c12 9.33301 20.167 22.333 24.5 39
s6.83301 33.334 7.5 50.001c0.666992 19.333 -0.666016 40 -3.99902 62z" />
    <glyph glyph-name="H" unicode="H" horiz-adv-x="574" 
d="M397 312c-12.667 -1.33301 -28.835 -1.8291 -48.502 -1.49609s-38.834 0.333008 -57.501 0s-34.667 -1.16602 -48 -2.49902s-20.333 -3.66602 -21 -6.99902c-2 -11.333 -3.5 -25.333 -4.5 -42s-1.83301 -34.167 -2.5 -52.5s-0.833984 -36 -0.500977 -53
s0.5 -31.5 0.5 -43.5c0.666992 -5.33301 1.16699 -13 1.5 -23l1 -31c0.333008 -10.667 0.333008 -20.667 0 -30s-1.16602 -16 -2.49902 -20c-4 -10 -9.66699 -13.333 -17 -10s-15 9 -23 17s-15 16.5 -21 25.5s-9.33301 14.5 -10 16.5
c-11.333 22.667 -21.666 46.5 -30.999 71.5s-15 49.833 -17 74.5c-1.33301 14.667 -2.16602 30.167 -2.49902 46.5s-1.16602 31.166 -2.49902 44.499l-22 -2.5c-8.66699 -1 -17.167 -1.16699 -25.5 -0.5s-15.833 2.83398 -22.5 6.50098s-11.334 10.167 -14.001 19.5
c0.666992 10.667 2.83398 19.167 6.50098 25.5s9 11.166 16 14.499s15.5 6 25.5 8l35 7c0 9.33301 -0.333008 22.833 -1 40.5s-1.16699 37.167 -1.5 58.5s-0.5 43.666 -0.5 66.999s0.833008 45.333 2.5 66s4.16699 38.667 7.5 54s8.33301 25.666 15 30.999
c16.667 14.667 31.167 18.334 43.5 11.001s22.666 -21.166 30.999 -41.499s15.333 -44.666 21 -72.999s10 -56.166 13 -83.499s5.33301 -52 7 -74s2.83398 -36.333 3.50098 -43c15.333 2.66699 32.166 4.33398 50.499 5.00098s35.333 1.16699 51 1.5
s28.834 1.16602 39.501 2.49902s16 4 16 8c0 12.667 -0.666992 31 -2 55l-4 74c-1.33301 25.333 -2 48.833 -2 70.5s1.33301 36.5 4 44.5c5.33301 16.667 12.5 26 21.5 28s17.833 0 26.5 -6s16.334 -14.5 23.001 -25.5s10.334 -20.833 11.001 -29.5
c0.666992 -15.333 2.16699 -31.5 4.5 -48.5s4.5 -34.333 6.5 -52s3.5 -35.167 4.5 -52.5s1.16699 -33.333 0.5 -48c9.33301 -1.33301 19.166 -1.33301 29.499 0s20.166 2.66602 29.499 3.99902s17.5 1.66602 24.5 0.999023s11.833 -3.33398 14.5 -8.00098
c2.66699 -8 0.333984 -15.667 -6.99902 -23s-16.666 -14.166 -27.999 -20.499s-22.833 -12.333 -34.5 -18s-20.167 -10.834 -25.5 -15.501c-0.666992 -1.33301 -0.833984 -5.16602 -0.500977 -11.499s0.666016 -14 0.999023 -23s0.833008 -18.833 1.5 -29.5s1 -21 1 -31
c0 -6.66699 0.166992 -18 0.5 -34s0.333008 -33.833 0 -53.5s-1 -39.667 -2 -60s-2.83301 -38.333 -5.5 -54s-6.16699 -27.334 -10.5 -35.001s-9.83301 -8.83398 -16.5 -3.50098c-14 11.333 -24.167 30.166 -30.5 56.499s-11 55.166 -14 86.499s-5.16699 62.666 -6.5 93.999
s-3.33301 58 -6 80z" />
    <glyph glyph-name="I" unicode="I" horiz-adv-x="306" 
d="M221 383c1.33301 -16 1.00098 -35.168 -0.999023 -57.501s-5 -45.666 -9 -69.999s-9 -48.333 -15 -72s-12.5 -44.5 -19.5 -62.5s-14.167 -32.333 -21.5 -43s-14.333 -15 -21 -13c-8.66699 2 -15.667 10.5 -21 25.5s-9.83301 33.167 -13.5 54.5
s-6.33398 44.666 -8.00098 69.999s-3 49.5 -4 72.5s-1.83301 43.667 -2.5 62s-1.33398 31.166 -2.00098 38.499c-2 14.667 -3.66699 32.334 -5 53.001s-2.16602 42.167 -2.49902 64.5s-0.333008 44.666 0 66.999s1 42.333 2 60s2.16699 31.834 3.5 42.501s3 15.667 5 15
c31.333 -2 55.833 -14.167 73.5 -36.5s30.834 -49 39.501 -80s14.167 -63.667 16.5 -98s4.16602 -65.166 5.49902 -92.499z" />
    <glyph glyph-name="J" unicode="J" horiz-adv-x="453" 
d="M74 130c7.33301 -8 20.167 -14.832 38.5 -20.499s38.166 -7.5 59.499 -5.5s41.833 9 61.5 21s34.5 31.667 44.5 59c6 21.333 10.167 45.666 12.5 72.999s3.5 55.5 3.5 84.5s-1.16699 57.833 -3.5 86.5s-5 55.334 -8 80.001s-6 46.167 -9 64.5s-5.5 31.5 -7.5 39.5
c-3.33301 13.333 -7.66602 24.666 -12.999 33.999l-14 24.5c-4 7 -6.16699 13.667 -6.5 20s3.16699 13.166 10.5 20.499c13.333 13.333 26.166 18.5 38.499 15.5s23.833 -11 34.5 -24s20.334 -29.333 29.001 -49s16.334 -39.5 23.001 -59.5s12 -38.5 16 -55.5
s6.66699 -29.167 8 -36.5c4.66699 -25.333 10 -52.833 16 -82.5s10.667 -60.167 14 -91.5s4.5 -62.5 3.5 -93.5s-5.83301 -60.167 -14.5 -87.5s-22.334 -52.333 -41.001 -75s-43.667 -41 -75 -55c-48 -22.667 -93.5 -30.667 -136.5 -24s-83.5 26 -121.5 58
c-16 14 -25.667 33 -29 57s-2.66602 47.667 2.00098 71s11.667 43.666 21 60.999s18.666 26 27.999 26c6.66699 0 11 -2.66699 13 -8s2.83301 -12.166 2.5 -20.499s-1.33301 -17.666 -3 -27.999s-3 -20.666 -4 -30.999s-1.16699 -19.833 -0.5 -28.5s3 -15.334 7 -20.001z
" />
    <glyph glyph-name="K" unicode="K" horiz-adv-x="521" 
d="M100 -20c-9.33301 0.666992 -17.1709 8.33789 -23.5039 23.0049s-11.333 32.5 -15 53.5s-6.5 43.667 -8.5 68s-3.5 47.166 -4.5 68.499l-2.5 54c-0.666992 14.667 -1.66699 23 -3 25c-9.33301 14 -14 27.833 -14 41.5s2 26.667 6 39s8.5 23.5 13.5 33.5
s7.83301 18 8.5 24c2 14.667 3.5 33.334 4.5 56.001s2.33301 46 4 70s3.83398 47.167 6.50098 69.5s6.33398 40.833 11.001 55.5c5.33301 18 13.5 30.333 24.5 37s22.167 9.16699 33.5 7.5s21.166 -6.83398 29.499 -15.501s12.833 -19.334 13.5 -32.001
c0.666992 -15.333 1.33398 -33.333 2.00098 -54s1.16699 -41 1.5 -61s0.666016 -38 0.999023 -54s0.5 -26.667 0.5 -32c10.667 7.33301 20.667 15.833 30 25.5l31 33.5c11.333 12.667 24.833 26.5 40.5 41.5s35.167 31.167 58.5 48.5c18 13.333 37.5 25.666 58.5 36.999
s42.167 21.333 63.5 30c10 3.33301 19 4.5 27 3.5s13.833 -3.83301 17.5 -8.5s4.83398 -10.834 3.50098 -18.501s-6.33301 -15.834 -15 -24.501l-50.5 -47l-64.5 -59l-68 -63.5c-22.667 -21.667 -43 -42.167 -61 -61.5s-32.333 -36.666 -43 -51.999s-15.667 -27 -15 -35
c2 -17.333 7.33301 -32.833 16 -46.5l29 -46.5c7.33301 -11.333 16.333 -22 27 -32s22.334 -17.833 35.001 -23.5s26.167 -8.5 40.5 -8.5s28.833 4.66699 43.5 14c20.667 12.667 39.834 18.167 57.501 16.5s32.334 -7.16699 44.001 -16.5s19 -20.333 22 -33
s0.5 -23.334 -7.5 -32.001c-24 -25.333 -47.333 -42.666 -70 -51.999s-44.5 -12.666 -65.5 -9.99902s-41.167 10 -60.5 22s-37.666 26.667 -54.999 44s-33.333 36.166 -48 56.499s-28 40.166 -40 59.499c-1.33301 2 -2.33301 -2.5 -3 -13.5s-1.5 -25.5 -2.5 -43.5
s-2.83301 -37.667 -5.5 -59s-6.33398 -41.333 -11.001 -60s-10.834 -34 -18.501 -46s-17.5 -17.667 -29.5 -17z" />
    <glyph glyph-name="L" unicode="L" horiz-adv-x="407" 
d="M-17 -14c-8.66699 22 -9.83398 42.6729 -3.50098 62.0059s17.166 35.333 32.499 48s34 20.667 56 24s44.667 0 68 -10c1.33301 -0.666992 3 2.66602 5 9.99902s3.66699 17 5 29s2 25.5 2 40.5s-1 29.833 -3 44.5c-8.66699 -4.66699 -19.167 -9.33398 -31.5 -14.001
s-24.333 -8 -36 -10s-22 -2.5 -31 -1.5s-13.833 4.83301 -14.5 11.5c-1.33301 6 1.33398 12 8.00098 18s15.334 12.667 26.001 20l36 26c13.333 10 26 22.333 38 37c0.666992 0.666992 1.16699 9.5 1.5 26.5s1 38.5 2 64.5s2.33301 54.5 4 85.5s4.33398 60.5 8.00098 88.5
s8.33398 52.667 14.001 74s13.167 35.666 22.5 42.999c16.667 14.667 36 20.5 58 17.5s42.5 -12.333 61.5 -28s34.833 -36.5 47.5 -62.5s18.667 -54.667 18 -86c-1.33301 -42 -8.33301 -78.333 -21 -109s-26.334 -56.5 -41.001 -77.5s-28 -37.167 -40 -48.5
s-18 -18.666 -18 -21.999c-1.33301 -18.667 -2 -37.834 -2 -57.501s-0.166992 -38.667 -0.5 -57s-1.16602 -35.166 -2.49902 -50.499s-4 -28 -8 -38c23.333 -14 44.666 -28.167 63.999 -42.5s39.833 -26.5 61.5 -36.5s46.167 -16.833 73.5 -20.5s61 -2.16699 101 4.5
c10 2 15.333 -0.666992 16 -8s-4 -16 -14 -26s-25.333 -19.5 -46 -28.5s-47.334 -14.5 -80.001 -16.5c-32 -2 -61.667 1.16699 -89 9.5s-51.333 18.166 -72 29.499c-24 12.667 -46.333 27.667 -67 45c-4 -6 -9.33301 -12.667 -16 -20c-5.33301 -6 -12 -12.5 -20 -19.5
s-17.667 -13.167 -29 -18.5c-11.333 -6 -23.666 -9.83301 -36.999 -11.5s-26.5 -0.833984 -39.5 2.49902s-25.333 9.66602 -37 18.999s-21.834 22.666 -30.501 39.999zM36 17.0059c2.66699 -9.33301 6.99902 -16.667 12.999 -22s13 -8 21 -8s16.333 3.66699 25 11
s17.667 19 27 35c-7.33301 5.33301 -16.666 10 -27.999 14s-22 6.16699 -32 6.5s-18 -2.16699 -24 -7.5s-6.66699 -15 -2 -29zM248.999 412.005c21.333 22 37.335 45 48.002 69c9.33301 20.667 13.666 44 12.999 70s-12.667 53 -36 81c-2 2 -3.83301 0.333008 -5.5 -5
s-3.33398 -13 -5.00098 -23s-3.16699 -21.667 -4.5 -35s-2.33301 -27 -3 -41c-2.66699 -33.333 -5 -72 -7 -116z" />
    <glyph glyph-name="M" unicode="M" horiz-adv-x="854" 
d="M871 -80c-65.333 5.33301 -116.663 32.5039 -153.996 81.5039s-63 113.833 -77 194.5c-5.33301 28.667 -8.83301 58 -10.5 88s-2.83398 59.833 -3.50098 89.5s-1 59 -1 88s-0.333008 57.167 -1 84.5c-20 -2.66699 -37.333 -16.5 -52 -41.5s-27.167 -55.667 -37.5 -92
s-18.833 -75.666 -25.5 -117.999s-12.5 -82.333 -17.5 -120s-9.16699 -70.334 -12.5 -98.001s-6.66602 -44.5 -9.99902 -50.5c-4 -9.33301 -10.667 -16.666 -20 -21.999s-19.5 -8.5 -30.5 -9.5s-22 0 -33 3s-19.833 8.16699 -26.5 15.5c-16 17.333 -28.333 40.5 -37 69.5
s-13.667 58.167 -15 87.5c-2.66699 70.667 -7.83398 142.834 -15.501 216.501s-19.167 144.5 -34.5 212.5l-14.5 -10.5c-5 -3.66699 -10 -9 -15 -16s-10.333 -16.167 -16 -27.5s-11.5 -26 -17.5 -44c-4.66699 -14 -9 -33.333 -13 -58s-7.5 -52 -10.5 -82
s-5.66699 -61.333 -8 -94s-4.33301 -63.834 -6 -93.501s-3 -56.334 -4 -80.001s-1.83301 -41.834 -2.5 -54.501c-0.666992 -10 -5.83398 -18.167 -15.501 -24.5s-20.834 -9.83301 -33.501 -10.5s-25.334 1.66602 -38.001 6.99902s-22 14.333 -28 27
c-9.33301 18.667 -15.333 39.5 -18 62.5s-3.5 46.5 -2.5 70.5s3.33301 47.667 7 71l10.5 66c2.66699 18 6.66699 41.167 12 69.5s12.166 58 20.499 89s18.5 61.5 30.5 91.5s26.333 55.833 43 77.5s36.167 37.167 58.5 46.5s47.5 9 75.5 -1
c18 -6.66699 33.333 -21.334 46 -44.001s23 -50 31 -82s14.167 -66.833 18.5 -104.5s7.5 -74.5 9.5 -110.5s3.16699 -69.333 3.5 -100s0.833008 -55 1.5 -73c5.33301 14 11.5 33.167 18.5 57.5l24 81c9 29.667 19 60.334 30 92.001s23.167 62 36.5 91
s27.666 55.167 42.999 78.5s31.666 41 48.999 53s35.833 17.167 55.5 15.5s40.5 -12.834 62.5 -33.501c14.667 -14 26.834 -36.5 36.501 -67.5s18 -66.167 25 -105.5s13.167 -80.666 18.5 -123.999s10.833 -84 16.5 -122s11.834 -71.167 18.501 -99.5
s15.334 -47.5 26.001 -57.5c16 -16 31.333 -26.167 46 -30.5s27.667 -6.83301 39 -7.5s21.166 -1 29.499 -1s14.166 -3.66699 17.499 -11c2.66699 -6 1.83398 -12.5 -2.49902 -19.5s-11.166 -13.333 -20.499 -19s-21 -10.334 -35 -14.001s-29 -4.83398 -45 -3.50098z" />
    <glyph glyph-name="N" unicode="N" horiz-adv-x="547" 
d="M157 130c0.666992 -10 0.327148 -24 -1.00586 -42s-4.83301 -34.167 -10.5 -48.5s-14.167 -23.666 -25.5 -27.999s-26.666 2.16699 -45.999 19.5c-12 9.33301 -21.167 24.333 -27.5 45s-10.666 45.167 -12.999 73.5s-3 59.666 -2 93.999s3.33301 69.5 7 105.5
s8.16699 72.167 13.5 108.5s10.666 70.833 15.999 103.5c2 12 5.33301 25.5 10 40.5s10 29.167 16 42.5s12.833 24.833 20.5 34.5s15.834 15.167 24.501 16.5s17.667 -2.33398 27 -11.001s19 -24.334 29 -47.001c12 -28.667 21 -58.667 27 -90s11 -62.833 15 -94.5l12 -94
c4 -31 9.83301 -60.5 17.5 -88.5s18.5 -54 32.5 -78s32.667 -45 56 -63c10 6 17.833 15.833 23.5 29.5s10 29.5 13 47.5s4.83301 37 5.5 57s0.666992 39.333 0 58s-1.5 35.834 -2.5 51.501s-1.5 27.834 -1.5 36.501c-0.666992 18.667 -0.5 39.334 0.5 62.001
s2.5 45.5 4.5 68.5s4.33301 45 7 66s5.66699 39 9 54s6.33301 26 9 33s5.33398 7.83301 8.00098 2.5c1.33301 -2.66699 2.66602 -10.834 3.99902 -24.501l5 -51l7 -68c2.66699 -25 5.66699 -50.333 9 -76s7 -50.5 11 -74.5s8.33301 -45 13 -63
c8.66699 -19.333 15 -43 19 -71s5.33301 -56.667 4 -86s-5 -57.333 -11 -84s-14.333 -48 -25 -64c-12 -18.667 -25 -29.834 -39 -33.501s-28.333 -2.16699 -43 4.5s-29.5 17.5 -44.5 32.5s-29 32 -42 51s-25 38.833 -36 59.5s-20.167 39.667 -27.5 57
c-6 14.667 -12.167 31.167 -18.5 49.5s-12.5 37.166 -18.5 56.499s-11.667 38.833 -17 58.5l-15 57.5c-11.333 42.667 -22 86.667 -32 132c-1.33301 -6.66699 -2.66602 -15.667 -3.99902 -27c-1.33301 -9.33301 -2.16602 -22.166 -2.49902 -38.499
s-0.166016 -36.166 0.500977 -59.499c0.666992 -28.667 2.33398 -58.334 5.00098 -89.001s5.5 -59.667 8.5 -87s6 -52.166 9 -74.499s5.16699 -39.833 6.5 -52.5z" />
    <glyph glyph-name="O" unicode="O" horiz-adv-x="531" 
d="M397 71c-17.333 -22 -37.502 -39.6689 -60.502 -53.002s-47 -21.5 -72 -24.5s-50 -0.666992 -75 7s-48.167 21.167 -69.5 40.5c-40 34.667 -68.5 76.167 -85.5 124.5s-25.667 98.666 -26 150.999s6.16699 104 19.5 155s30.333 96.833 51 137.5
c8.66699 18 23.167 35.167 43.5 51.5s43 28.833 68 37.5s51 12.334 78 11.001s51.833 -10.333 74.5 -27c18 -13.333 31.333 -28.166 40 -44.499s19.334 -34.166 32.001 -53.499c32.667 -51.333 52.834 -103.5 60.501 -156.5s8.16699 -103 1.5 -150s-18 -88.667 -34 -125
s-31.333 -63.5 -46 -81.5zM146.998 521.998c-6 -12.667 -12.498 -33.8359 -19.498 -63.5029s-12.667 -62.667 -17 -99s-6.33301 -73.166 -6 -110.499s4.66602 -70.333 12.999 -99s21.666 -50 39.999 -64s43.166 -15.667 74.499 -5c23.333 8 42.333 21.167 57 39.5
s26.5 39 35.5 62s15.667 47.333 20 73s7.83301 49.5 10.5 71.5c3.33301 32.667 3.5 65.667 0.5 99s-8.66699 64.333 -17 93s-19 53.834 -32 75.501s-27.5 37.834 -43.5 48.501c-15.333 6 -29 4.66699 -41 -4s-22.667 -20.167 -32 -34.5s-17.666 -29.5 -24.999 -45.5
s-13.333 -28.333 -18 -37z" />
    <glyph glyph-name="P" unicode="P" horiz-adv-x="397" 
d="M187 88c2.66699 -12 5.00195 -24.166 7.00195 -36.499s1.33301 -24.833 -2 -37.5c-5.33301 -8 -13 -13 -23 -15s-20.5 -2 -31.5 0s-21.667 5.16699 -32 9.5s-18.5 8.5 -24.5 12.5c-11.333 32.667 -19.333 66.667 -24 102s-7.33398 70.666 -8.00098 105.999
s0 70.333 2 105s4.66699 67.334 8 98.001c1.33301 22.667 5.5 46.667 12.5 72s16.167 49.833 27.5 73.5s25 45.5 41 65.5s34.167 35.5 54.5 46.5s42.833 16.833 67.5 17.5s51 -6.33301 79 -21s46.333 -33.334 55 -56.001s10.5 -47.167 5.5 -73.5s-15.833 -53 -32.5 -80
s-35.834 -51.833 -57.501 -74.5s-44.667 -41.667 -69 -57s-47.166 -24.333 -68.499 -27c-1.33301 -38 -1.33301 -76.333 0 -115s5.66602 -77 12.999 -115zM328.002 640.001c-26 0.666992 -48.166 -6.00195 -66.499 -20.002s-33.5 -31 -45.5 -51s-20.667 -41.167 -26 -63.5
s-7.66602 -40.833 -6.99902 -55.5c1.33301 0.666992 6.83301 3.66699 16.5 9s21.167 12.166 34.5 20.499s27.166 18.333 41.499 30s26.666 24.334 36.999 38.001s17.5 28.334 21.5 44.001s2 31.834 -6 48.501z" />
    <glyph glyph-name="Q" unicode="Q" horiz-adv-x="571" 
d="M199 42c-31.333 15.333 -58.6631 37.332 -81.9961 65.999s-42.5 60.167 -57.5 94.5s-25.833 69.5 -32.5 105.5s-8.66699 69.333 -6 100c2 24 5.5 51 10.5 81s12.833 59 23.5 87s25 52.667 43 74s41 35.666 69 42.999c22.667 5.33301 47.167 8.5 73.5 9.5
s52.166 -1 77.499 -6s49 -13 71 -24s40 -25.833 54 -44.5c12.667 -16 23.667 -34 33 -54s17.166 -40.667 23.499 -62s11 -42.666 14 -63.999s4.16699 -42 3.5 -62c-1.33301 -24 -3.5 -46.833 -6.5 -68.5s-6 -41 -9 -58s-5.83301 -30.833 -8.5 -41.5s-4 -17 -4 -19
c-0.666992 -1.33301 2.83301 -7 10.5 -17l27.5 -37.5l33.5 -48.5c11.667 -17.333 21.167 -33.666 28.5 -48.999c6.66699 -14 5.66699 -24.5 -3 -31.5s-21.334 -9.33301 -38.001 -7s-35.5 9.33301 -56.5 21s-40.833 29.167 -59.5 52.5c-1.33301 0 -8 -5.16699 -20 -15.5
s-28.333 -20 -49 -29s-44.834 -14.5 -72.501 -16.5s-58.167 5 -91.5 21zM132.003 444.999c-26 -97.333 -30 -174.835 -12 -232.502s64 -92.5 138 -104.5c24 -4 40 -2.33301 48 5s10.833 17.5 8.5 30.5s-8.33301 27.667 -18 44s-19.834 32 -30.501 47
s-20.334 27.833 -29.001 38.5s-13.334 16.667 -14.001 18c-2 10 0.333008 16.667 7 20s15.334 4.33301 26.001 3s22.834 -4.33301 36.501 -9s26.834 -10 39.501 -16s24 -12 34 -18s17 -11 21 -15c4 8 9 22.167 15 42.5s10.5 43.833 13.5 70.5s4 54.834 3 84.501
s-6.5 57.834 -16.5 84.501s-25.333 50 -46 70s-48.334 34 -83.001 42c-12.667 2.66699 -24.667 0.666992 -36 -6s-21.833 -16.334 -31.5 -29.001s-18.5 -27.167 -26.5 -43.5s-15.167 -32.666 -21.5 -48.999s-11.666 -31.5 -15.999 -45.5s-7.5 -24.667 -9.5 -32z" />
    <glyph glyph-name="R" unicode="R" horiz-adv-x="536" 
d="M474 2c-22.667 10 -42.5 24.8291 -59.5 44.4961s-32.5 39.167 -46.5 58.5c-15.333 22 -31 46.833 -47 74.5s-33.167 53.834 -51.5 78.501s-38 45.5 -59 62.5s-44.167 25.5 -69.5 25.5c-4.66699 0 -8.16699 -5.5 -10.5 -16.5s-4.16602 -24.167 -5.49902 -39.5
s-2.33301 -31.666 -3 -48.999s-1 -32.333 -1 -45c-0.666992 -27.333 0.5 -53.166 3.5 -77.499s5 -45.666 6 -63.999s0 -32.666 -3 -42.999s-10.833 -15.166 -23.5 -14.499c-10.667 0.666992 -21 4 -31 10s-19.167 13.833 -27.5 23.5s-15.5 20.834 -21.5 33.501
s-10 26 -12 40c-5.33301 40 -7.83301 85.333 -7.5 136s5.16602 101.167 14.499 151.5s23.833 98.333 43.5 144s46.5 83.5 80.5 113.5c19.333 17.333 41 30.333 65 39s47.5 12.167 70.5 10.5s44.333 -8.5 64 -20.5s35.167 -30.333 46.5 -55c12.667 -28 15.5 -54.333 8.5 -79
s-19.667 -46.834 -38 -66.501s-39.833 -36 -64.5 -49s-48 -21.5 -70 -25.5c16.667 -6 35 -15.833 55 -29.5s39.667 -28.667 59 -45s37.833 -33.333 55.5 -51s33.167 -33.834 46.5 -48.501l35.5 -41c9 -10.667 16.5 -20.5 22.5 -29.5s11.167 -18 15.5 -27
s8.83301 -20.5 13.5 -34.5c8.66699 -23.333 11.5 -41.833 8.5 -55.5s-8.33301 -23.834 -16 -30.501s-16.167 -10.5 -25.5 -11.5s-16.333 -0.166992 -21 2.5zM304 618.996c-20 -3.33301 -37.665 -11.168 -52.998 -23.501s-28.833 -27.333 -40.5 -45s-22 -37 -31 -58
s-17.5 -41.833 -25.5 -62.5c10.667 -4 23.667 -3.66699 39 1s30.666 11.834 45.999 21.501s30 21.334 44 35.001s24.667 28.167 32 43.5s10.666 30.666 9.99902 45.999s-7.66699 29.333 -21 42z" />
    <glyph glyph-name="S" unicode="S" horiz-adv-x="539" 
d="M398 583c-8 -1.33301 -18.6602 -2.83398 -31.9932 -4.50098s-27.833 -5.66699 -43.5 -12s-32 -15.833 -49 -28.5s-33.5 -30.334 -49.5 -53.001c-22 -31.333 -27.833 -56.666 -17.5 -75.999s37.833 -38.666 82.5 -57.999c22.667 -9.33301 46.5 -17.5 71.5 -24.5
s48.333 -16.667 70 -29s40.5 -29.333 56.5 -51s26.667 -51.5 32 -89.5c4 -29.333 -1.16699 -54.333 -15.5 -75s-33.5 -37.834 -57.5 -51.501s-50.5 -23.667 -79.5 -30s-55.833 -9.5 -80.5 -9.5c-50.667 -0.666992 -93.667 5.83301 -129 19.5s-63.333 29.167 -84 46.5
s-33.667 34.166 -39 50.499s-3.33301 27.166 6 32.499c6 3.33301 14.167 3.33301 24.5 0s23 -7.83301 38 -13.5s32 -11.167 51 -16.5s40.333 -8.33301 64 -9s49.667 2 78 8s59.166 18 92.499 36c12 6.66699 19.167 16.167 21.5 28.5s-0.5 25.333 -8.5 39
s-21.5 26.5 -40.5 38.5s-43.833 21.333 -74.5 28c-26.667 6 -52.834 12.333 -78.501 19s-48.834 16 -69.501 28s-37.667 27.333 -51 46s-21.333 42.667 -24 72c-1.33301 20 4.66699 43 18 69s30.833 51.667 52.5 77s46.5 48.833 74.5 70.5s56.167 37.834 84.5 48.501
s55.166 14 80.499 10s46.666 -18.667 63.999 -44c11.333 -17.333 23.833 -31.5 37.5 -42.5s25.667 -20.167 36 -27.5s17.666 -14 21.999 -20s3.16602 -12.667 -3.50098 -20c-7.33301 -7.33301 -15.333 -10.166 -24 -8.49902s-18.5 4.83398 -29.5 9.50098
s-23 9.16699 -36 13.5s-26.833 5.5 -41.5 3.5z" />
    <glyph glyph-name="T" unicode="T" horiz-adv-x="412" 
d="M292 602c2.66699 -31.333 4.99902 -67.1641 6.99902 -107.497s3.16699 -81.833 3.5 -124.5s-0.5 -84.5 -2.5 -125.5s-5.33301 -77.833 -10 -110.5s-10.834 -59.167 -18.501 -79.5s-17.167 -31.166 -28.5 -32.499c-7.33301 -0.666992 -14.166 5.66602 -20.499 18.999
s-12.333 30.666 -18 51.999s-10.834 45.333 -15.501 72s-8.66699 53 -12 79l-9 72.5c-2.66699 22.333 -4.66699 40.166 -6 53.499c-2 14.667 -3.66699 32 -5 52s-2.16602 40.667 -2.49902 62s-0.833008 42 -1.5 62s-1.33398 37.333 -2.00098 52
c-0.666992 4 -4.16699 6.5 -10.5 7.5s-14.666 2 -24.999 3s-22 3 -35 6s-25.833 8.83301 -38.5 17.5c-16 10 -22 18.333 -18 25s13.833 12.167 29.5 16.5s35 7.66602 58 9.99902s45.667 4 68 5s42 1.5 59 1.5s27.167 -0.333008 30.5 -1
c5.33301 -0.666992 14.166 -1 26.499 -1s26.333 -0.333008 42 -1s32 -1.5 49 -2.5s32.5 -2.5 46.5 -4.5s25.5 -4.5 34.5 -7.5s13.5 -6.5 13.5 -10.5c0 -6.66699 -5.83301 -13.5 -17.5 -20.5s-26.667 -13.5 -45 -19.5s-38.666 -10.833 -60.999 -14.5
s-44.166 -5.5 -65.499 -5.5z" />
    <glyph glyph-name="U" unicode="U" horiz-adv-x="485" 
d="M131 511l13.502 -91.498c5 -35 11.167 -70.333 18.5 -106s16.166 -70 26.499 -103s23.166 -60.5 38.499 -82.5c14.667 -20.667 28.167 -30.167 40.5 -28.5s23.333 8.66699 33 21s17.834 27 24.501 44s11 30.833 13 41.5c4.66699 22 9.33398 48.167 14.001 78.5l14 93.5
c4.66699 32 9.5 63.5 14.5 94.5s10.5 58.5 16.5 82.5s12.833 43.333 20.5 58s16.167 21.667 25.5 21c5.33301 0.666992 8.83301 -3.83301 10.5 -13.5s2.16699 -21.834 1.5 -36.501s-1.66699 -30.167 -3 -46.5s-2.33301 -30.5 -3 -42.5
c-1.33301 -20.667 -1.5 -41.334 -0.5 -62.001l3 -62.5c1 -21 1.5 -42 1.5 -63s-1.33301 -42.167 -4 -63.5c-3.33301 -25.333 -8.16602 -53.333 -14.499 -84s-15.833 -59 -28.5 -85s-29.834 -47.833 -51.501 -65.5s-49.5 -26.167 -83.5 -25.5
c-44 0.666992 -81 10.667 -111 30s-54.667 44.666 -74 75.999s-34 66.833 -44 106.5s-16.5 80.5 -19.5 122.5s-3.66699 83.333 -2 124s4.66699 77.5 9 110.5s9 60.333 14 82s9.16699 34.5 12.5 38.5c7.33301 9.33301 14.166 12.5 20.499 9.5s12.166 -9.66699 17.499 -20
s10 -23.166 14 -38.499s7.66699 -30.5 11 -45.5s5.83301 -28.833 7.5 -41.5z" />
    <glyph glyph-name="V" unicode="V" horiz-adv-x="437" 
d="M160 172c-12.667 29.333 -24.002 60.335 -34.002 93.002s-19.167 65.5 -27.5 98.5s-15.666 65.333 -21.999 97s-11.833 60.834 -16.5 87.501l-12 71c-3.33301 20.667 -6 36.334 -8 47.001c-4 20.667 -1.66699 34.167 7 40.5s19.5 8.16602 32.5 5.49902
s26 -8.66699 39 -18s21.5 -20 25.5 -32c14 -34 23.833 -68.833 29.5 -104.5s10.667 -73 15 -112s10.166 -79.833 17.499 -122.5s20 -88 38 -136c2.66699 8.66699 6.83398 27.167 12.501 55.5l20 99.5c7.66699 38 16.5 77.667 26.5 119s20.5 79.333 31.5 114s22.667 63 35 85
s24.833 32.333 37.5 31c1.33301 -0.666992 1.5 -5.83398 0.5 -15.501s-2.5 -22.334 -4.5 -38.001l-6.5 -52.5c-2.33301 -19.333 -4.33301 -39 -6 -59s-2.5 -39.333 -2.5 -58s1.66699 -34.667 5 -48c4.66699 -21.333 6.33398 -45.833 5.00098 -73.5
s-4.83301 -56.334 -10.5 -86.001s-13 -59.167 -22 -88.5s-18.333 -56 -28 -80s-19.167 -44 -28.5 -60s-17.333 -25.667 -24 -29c-10 -4.66699 -20.667 -2.5 -32 6.5s-22.5 22 -33.5 39s-21.5 36.5 -31.5 58.5s-19.333 43.667 -28 65z" />
    <glyph glyph-name="W" unicode="W" horiz-adv-x="838" 
d="M380 231c-4 -17.333 -8.16504 -37.165 -12.498 -59.498s-10 -44.5 -17 -66.5s-16 -42.333 -27 -61s-25.167 -32.667 -42.5 -42c-22.667 -11.333 -43 -13.833 -61 -7.5s-34.5 18.666 -49.5 36.999s-28.167 41.5 -39.5 69.5s-21.333 58 -30 90s-15.834 64.667 -21.501 98
s-10.5 64.5 -14.5 93.5s-7 54.667 -9 77s-3.33301 38.166 -4 47.499c-0.666992 18.667 -0.166992 39 1.5 61s4.66699 42.5 9 61.5s10.166 34.833 17.499 47.5s16 19.334 26 20.001s19.333 -3.66602 28 -12.999s16.167 -21.333 22.5 -36s11.666 -30.667 15.999 -48
s7.16602 -33 8.49902 -47c4.66699 -38.667 9.33398 -75.334 14.001 -110.001s9.5 -68.834 14.5 -102.501s10.833 -67.667 17.5 -102s15 -70.5 25 -108.5c12.667 10.667 24 29.334 34 56.001s19.667 56.5 29 89.5l28.5 101.5c9.66699 34.667 20.834 65.167 33.501 91.5
s27.334 46.166 44.001 59.499s36.667 15.333 60 6c28 -12 50.333 -28 67 -48s29.5 -42.667 38.5 -68s15.5 -52.166 19.5 -80.499s7.83301 -56.833 11.5 -85.5s8.5 -56.5 14.5 -83.5s15.333 -51.833 28 -74.5c5.33301 16.667 10.333 42.834 15 78.501l16 118.5
c6 43.333 13 87.666 21 132.999s18 85.666 30 120.999c4.66699 14 10 27.667 16 41s12 25 18 35s12 17.667 18 23s11.667 7 17 5c12.667 -5.33301 20 -16.333 22 -33s1.33301 -41.167 -2 -73.5l-13 -124c-5.33301 -50.333 -8.33301 -111.833 -9 -184.5
c0 -36 -6 -73.167 -18 -111.5s-27.667 -72.166 -47 -101.499c-14 -21.333 -31.333 -32.833 -52 -34.5s-41.167 2 -61.5 11s-39 21.667 -56 38s-28.833 32.166 -35.5 47.499c-13.333 31.333 -22.833 65.5 -28.5 102.5s-10.334 73.667 -14.001 110
s-7.83398 70.666 -12.501 102.999s-12.667 59.833 -24 82.5c-1.33301 2 -4 -1.5 -8 -10.5s-8.66699 -21.167 -14 -36.5s-11 -33 -17 -53l-17.5 -59c-5.66699 -19.333 -10.667 -37.166 -15 -53.499s-7.16602 -28.833 -8.49902 -37.5z" />
    <glyph glyph-name="X" unicode="X" 
d="M490 23c-16 -9.33301 -31.835 -11.5049 -47.502 -6.50488s-31.167 14.667 -46.5 29s-30.333 31.833 -45 52.5s-28.667 42.167 -42 64.5s-25.833 44.333 -37.5 66l-31.5 56.5c-7.33301 -6.66699 -15.833 -18.667 -25.5 -36s-19.667 -36.833 -30 -58.5l-32 -67
c-11 -23 -21.667 -43.667 -32 -62s-20 -32.833 -29 -43.5s-16.833 -14 -23.5 -10c-12 6.66699 -17.5 19.5 -16.5 38.5s5.5 41.333 13.5 67s18.333 52.834 31 81.501s25.5 55.834 38.5 81.501l34.5 68c10 19.667 16.333 33.167 19 40.5
c0 0.666992 -1.33301 3.83398 -4 9.50098s-6.33398 12.834 -11.001 21.501s-9.33398 17.834 -14.001 27.501s-9 19.167 -13 28.5l-29.5 65c-10.333 22 -23.166 42.667 -38.499 62c-2.66699 3.33301 -9.16699 9.16602 -19.5 17.499s-20 17.333 -29 27
s-14.5 18.834 -16.5 27.501s4.33301 15 19 19c28 -1.33301 53 -8.16602 75 -20.499s42.333 -27.833 61 -46.5s36.334 -38.834 53.001 -60.501s33.334 -41.834 50.001 -60.501c9.33301 13.333 20.833 28.666 34.5 45.999l42.5 52.5l44 52c14.667 17 28.167 31.833 40.5 44.5
s22.833 22.334 31.5 29.001s14.334 8.66699 17.001 6c6 -6 6.33301 -17.5 1 -34.5s-13.833 -37 -25.5 -60s-25.167 -47.167 -40.5 -72.5l-42.5 -71l-33 -56c-9 -15.333 -12.833 -24.666 -11.5 -27.999c2.66699 -8 9.83398 -21.5 21.501 -40.5l39.5 -65l45.5 -77
c15.667 -27 29.167 -51.833 40.5 -74.5c8.66699 -18 14.667 -34.5 18 -49.5s5.16602 -28.333 5.49902 -40s-0.5 -21 -2.5 -28s-4.33301 -11.167 -7 -12.5z" />
    <glyph glyph-name="Y" unicode="Y" horiz-adv-x="422" 
d="M44 699c10 0.666992 21.335 -4.16406 34.002 -14.4971s24.834 -23.666 36.501 -39.999s21.834 -35 30.501 -56s14 -41.5 16 -61.5c5.33301 -39.333 12.333 -68.333 21 -87s17.667 -31.667 27 -39c10.667 -8 22 -11 34 -9c13.333 34 26 68 38 102
c9.33301 29.333 18.333 60.166 27 92.499s13.667 62.166 15 89.499c0.666992 12 7.16699 17.5 19.5 16.5s25.5 -7.33301 39.5 -19s26.167 -28.167 36.5 -49.5s13.5 -46 9.5 -74c-3.33301 -26 -10 -60 -20 -102s-24.833 -86.167 -44.5 -132.5s-44.834 -92 -75.501 -137
s-68.334 -83.833 -113.001 -116.5c-26 -19.333 -51.333 -32.333 -76 -39s-44.334 -8.16699 -59.001 -4.5s-22.334 11.667 -23.001 24s9.66602 27.5 30.999 45.5c34 28 62 57.167 84 87.5s39.667 58.166 53 83.499c16 29.333 28.333 58 37 86
c-21.333 4.66699 -42.666 12.667 -63.999 24c-18 9.33301 -36.833 22.833 -56.5 40.5s-36.834 40.5 -51.501 68.5l-34 70c-12 25.333 -20.333 48.833 -25 70.5s-3.66699 40.167 3 55.5s23.334 23.666 50.001 24.999z" />
    <glyph glyph-name="Z" unicode="Z" horiz-adv-x="554" 
d="M561 56c-26 -7.33301 -55.8291 -14.4961 -89.4961 -21.4961s-68 -12.5 -103 -16.5s-69.333 -6.16699 -103 -6.5s-63.834 2.16699 -90.501 7.5l-34.5 7c-13 2.66699 -25.833 6.16699 -38.5 10.5s-24.167 9.83301 -34.5 16.5s-17.833 15.334 -22.5 26.001
c-6 13.333 -6.66699 24.333 -2 33s11.667 16 21 22s19.166 11.333 29.499 16s18.5 10 24.5 16c28 26.667 54 56.667 78 90s46.833 68 68.5 104s42.5 72.333 62.5 109l59 105c-15.333 2 -30.5 3.5 -45.5 4.5s-29.833 2.33301 -44.5 4s-29.334 4.16699 -44.001 7.5
s-29 8.66602 -43 15.999c-9.33301 4.66699 -19.166 13 -29.499 25s-18 23.5 -23 34.5s-5.33301 19.333 -1 25s17.166 4.83398 38.499 -2.49902c34.667 -12 69.667 -20.833 105 -26.5s71.333 -6.83398 108 -3.50098c11.333 0.666992 23.666 1.16699 36.999 1.5
s26.5 -0.5 39.5 -2.5s25.5 -5.5 37.5 -10.5s22.667 -12.167 32 -21.5c4.66699 -4.66699 3.83398 -15.334 -2.49902 -32.001s-16 -37.167 -29 -61.5s-28.5 -51.5 -46.5 -81.5l-56 -90.5l-58 -89.5l-52.5 -78.5l-38 -57c-9.66699 -15 -14.834 -23.5 -15.501 -25.5l72.5 -9
c21 -2.66699 41 -4.33398 60 -5.00098s38.167 0 57.5 2s41 6 65 12c15.333 3.33301 31.5 5.66602 48.5 6.99902s32.333 1.66602 46 0.999023s24.667 -2.66699 33 -6s11.833 -7.5 10.5 -12.5s-8.83301 -11 -22.5 -18s-35.167 -15.167 -64.5 -24.5z" />
    <glyph glyph-name="bracketleft" unicode="[" horiz-adv-x="507" 
d="M344 732c0 -5.33301 -3.33008 -9.67188 -9.99707 -13.0049s-15 -6.5 -25 -9.5s-20.667 -6.5 -32 -10.5s-22.166 -9.5 -32.499 -16.5s-19 -16 -26 -27s-10.833 -25.5 -11.5 -43.5c-2 -48 -2.16699 -95.833 -0.5 -143.5s2.5 -95.5 2.5 -143.5
c0 -25.333 -3.16699 -50.5 -9.5 -75.5s-10.833 -50.167 -13.5 -75.5c-1.33301 -15.333 -3 -31.333 -5 -48s-2.16699 -31.667 -0.5 -45s6.66699 -24 15 -32s22.5 -11 42.5 -9c22 2.66699 44.333 6.66699 67 12s45.334 10.333 68.001 15s45.167 7.83398 67.5 9.50098
s44.166 0.166992 65.499 -4.5c-0.666992 -11.333 -11.334 -23.666 -32.001 -36.999s-46.334 -25.5 -77.001 -36.5s-64.334 -19.833 -101.001 -26.5s-71.167 -8.66699 -103.5 -6s-60.333 11.167 -84 25.5s-38.167 36.5 -43.5 66.5c-8 45.333 -9.66699 91.5 -5 138.5
s9.66699 92.833 15 137.5l9 76.5c3.33301 27.667 7 55.5 11 83.5s8.16699 55.333 12.5 82s8.5 50.834 12.5 72.501s7.66699 40 11 55s6.33301 24.5 9 28.5s9.5 7.5 20.5 10.5s24.167 5.5 39.5 7.5s31.333 3.16699 48 3.5s32.167 -0.166992 46.5 -1.5
s26.166 -3.66602 35.499 -6.99902s14 -7.66602 14 -12.999z" />
    <glyph glyph-name="backslash" unicode="\" horiz-adv-x="421" 
d="M43 638c-2.66699 6 -4.83008 14.834 -6.49707 26.501s-2.16699 23 -1.5 34s2.83398 20 6.50098 27s9.5 8.83301 17.5 5.5c7.33301 -4 16 -13 26 -27s20.5 -31 31.5 -51s22.333 -41.833 34 -65.5l33.5 -70.5l29.5 -65.5c9 -20.333 16.833 -36.833 23.5 -49.5l46.5 -97.5
l45.5 -99.5c5.33301 -12.667 12.666 -29.167 21.999 -49.5s17.166 -41.333 23.499 -63s9.66602 -42.334 9.99902 -62.001s-5.5 -34.834 -17.5 -45.501c-6.66699 -6.66699 -15.834 -4.16699 -27.501 7.5s-24.5 28.334 -38.5 50.001s-28.5 46.667 -43.5 75l-43 84l-37 76.5
l-25.5 53c-4 8 -8.66699 19.5 -14 34.5s-10.5 30.833 -15.5 47.5s-9.5 32.5 -13.5 47.5s-7 27.167 -9 36.5l-12 33c-4.66699 12.667 -9.66699 25.5 -15 38.5l-16 38z" />
    <glyph glyph-name="bracketright" unicode="]" 
d="M40 94c7.33301 5.33301 17.1641 7.99707 29.4971 7.99707s26 -1.16699 41 -3.5s30.833 -5.16602 47.5 -8.49902s32.834 -5.83301 48.501 -7.5s30.5 -1.66699 44.5 0s26 6.5 36 14.5c12.667 10 22.834 29.667 30.501 59s13.167 63.5 16.5 102.5s4.83301 80.333 4.5 124
s-2.16602 84.834 -5.49902 123.501s-8.16602 72.334 -14.499 101.001s-13.5 47.667 -21.5 57c-14.667 -1.33301 -29.834 -3.66602 -45.501 -6.99902s-31.334 -6.16602 -47.001 -8.49902s-31.5 -3.33301 -47.5 -3s-31.333 4.16602 -46 11.499
c-14.667 6.66699 -23.667 12.834 -27 18.501s-3.16602 11 0.500977 16s9.66699 9.5 18 13.5s17.5 7.5 27.5 10.5s19.667 5.33301 29 7s16.666 2.83398 21.999 3.50098c14.667 0.666992 30.334 3.16699 47.001 7.5s33.167 7.5 49.5 9.5s32.166 1.33301 47.499 -2
s29.333 -11.666 42 -24.999c2.66699 -9.33301 6.5 -25 11.5 -47s10.167 -47.667 15.5 -77l16.5 -94.5l16 -99c5 -32.333 9 -62.333 12 -90s4.83301 -50.5 5.5 -68.5c0.666992 -22.667 -0.166016 -47.834 -2.49902 -75.501s-6.33301 -53.834 -12 -78.501s-13.5 -46 -23.5 -64
s-22.333 -28.667 -37 -32c-17.333 -4 -39.333 -6.66699 -66 -8s-54 -1 -82 1s-55 5.66699 -81 11s-47 13 -63 23c-7.33301 4.66699 -13.5 11 -18.5 19s-8.83301 16.167 -11.5 24.5s-4.5 15.666 -5.5 21.999s-1.5 10.166 -1.5 11.499z" />
    <glyph glyph-name="asciicircum" unicode="^" horiz-adv-x="378" 
d="M182 627c-10.667 -13.333 -19.8311 -25.5039 -27.498 -36.5039s-15.334 -20.667 -23.001 -29s-15.667 -15 -24 -20s-18.5 -8.16699 -30.5 -9.5s-18.667 3.83398 -20 15.501s0 25.667 4 42s9.5 32.833 16.5 49.5s12.5 29.334 16.5 38.001c8 18.667 16 33.334 24 44.001
s17 17.667 27 21s21.5 3.16602 34.5 -0.500977s28.5 -10.167 46.5 -19.5c13.333 -6.66699 29.166 -19.167 47.499 -37.5s34.833 -37.833 49.5 -58.5s25 -40.334 31 -59.001s3.66699 -31.667 -7 -39c-11.333 -7.33301 -24 -7.16602 -38 0.500977s-28.5 17.834 -43.5 30.501
s-29.667 25.834 -44 39.501s-27.5 23.167 -39.5 28.5z" />
    <glyph glyph-name="underscore" unicode="_" 
d="M404 39c13.333 -3.33301 27.998 -8.00293 43.998 -14.0029s29.667 -11.667 41 -17c8.66699 -5.33301 14.5 -10.833 17.5 -16.5s3.5 -11.167 1.5 -16.5s-6 -9.66602 -12 -12.999s-13.333 -5 -22 -5c-28 -5.33301 -58.5 -7.83301 -91.5 -7.5s-66.167 1.33301 -99.5 3
s-65.666 3.16699 -96.999 4.5s-59.333 0 -84 -4c-20.667 -1.33301 -38.167 0.333984 -52.5 5.00098s-31.166 11 -50.499 19c-8.66699 6 -14.334 12 -17.001 18s-3.33398 11.667 -2.00098 17s3.83301 10 7.5 14s7.5 7 11.5 9c3.33301 2 13 4.5 29 7.5s35.833 5.66699 59.5 8
s50 4.33301 79 6s57.833 2.33398 86.5 2.00098s56.334 -2 83.001 -5s49.334 -7.83301 68.001 -14.5z" />
    <glyph glyph-name="grave" unicode="`" horiz-adv-x="354" 
d="M187 579c-5.33301 3.33301 -15.167 11.6641 -29.5 24.9971s-28.5 28.333 -42.5 45s-25 32.834 -33 48.501s-8.33301 27.834 -1 36.501c5.33301 6 16.333 7.33301 33 4s35.667 -9.66602 57 -18.999s43.333 -20.833 66 -34.5s42.667 -27.667 60 -42s30.5 -28 39.5 -41
s10.5 -23.5 4.5 -31.5c-9.33301 -11.333 -20.5 -18.5 -33.5 -21.5s-26.5 -3.5 -40.5 -1.5s-28.167 6 -42.5 12s-26.833 12.667 -37.5 20z" />
    <glyph glyph-name="a" unicode="a" horiz-adv-x="490" 
d="M296 423c-2 -8.66699 -7.67285 -15.834 -17.0059 -21.501s-20 -11.5 -32 -17.5s-24.333 -12.667 -37 -20s-23.334 -17 -32.001 -29c-13.333 -19.333 -22.666 -42.333 -27.999 -69s-7.83301 -52.167 -7.5 -76.5s3.33301 -45.333 9 -63s12.834 -26.5 21.501 -26.5
c10.667 0 21.834 5 33.501 15s22.167 21.5 31.5 34.5s17 26.333 23 40s9 24.167 9 31.5s-0.333008 17.5 -1 30.5s-0.5 25.833 0.5 38.5s3 23.667 6 33s8.16699 14.333 15.5 15s16.166 2.33398 26.499 5.00098s20.166 3 29.499 1s16.833 -8.5 22.5 -19.5
s7.83398 -29.833 6.50098 -56.5c-2 -54 0.666992 -94.833 8 -122.5s21.666 -43.834 42.999 -48.501c14.667 -2.66699 27.834 0.833008 39.501 10.5s22.167 20.5 31.5 32.5s17.333 22.833 24 32.5s12 13.5 16 11.5c4.66699 -2 6.33398 -10.333 5.00098 -25
s-6.33301 -31.167 -15 -49.5s-21.5 -36.666 -38.5 -54.999s-38.833 -32.5 -65.5 -42.5c-14 -5.33301 -27 -8 -39 -8s-22.833 1.66699 -32.5 5s-18.167 8 -25.5 14s-14 12.667 -20 20c-13.333 16.667 -24 37.334 -32 62.001c-6.66699 -16 -16 -30 -28 -42
c-10 -10.667 -23 -20.5 -39 -29.5s-35.667 -14.167 -59 -15.5c-23.333 -0.666992 -45.333 6.66602 -66 21.999s-37.167 36 -49.5 62s-19 56.167 -20 90.5s6.5 70.5 22.5 108.5c10.667 24.667 24.667 45.667 42 63s35.833 31.5 55.5 42.5s39.334 19 59.001 24
s37.334 7.83301 53.001 8.5s28.334 -0.5 38.001 -3.5s13.834 -7.16699 12.501 -12.5z" />
    <glyph glyph-name="b" unicode="b" horiz-adv-x="484" 
d="M87 648c8.66699 22.667 20.668 41.6641 36.001 56.9971s31.5 27 48.5 35s34.167 12.333 51.5 13s32.333 -2.33301 45 -9c13.333 -7.33301 23.5 -16.5 30.5 -27.5s12 -23.667 15 -38s4.5 -29.666 4.5 -45.999s-1 -32.833 -3 -49.5c-2.66699 -24 -7 -47.5 -13 -70.5
s-13.167 -45.167 -21.5 -66.5s-17.333 -42 -27 -62s-19.5 -38.333 -29.5 -55c-22.667 -40 -48 -77.333 -76 -112c-0.666992 -28 2.33301 -52.333 9 -73s15.334 -37.667 26.001 -51s22 -23.166 34 -29.499s22.667 -9.5 32 -9.5c14 0 26.333 7.16699 37 21.5
s19 31.833 25 52.5s9.66699 42.5 11 65.5s-0.333984 43.5 -5.00098 61.5c-4.66699 17.333 -11 29.333 -19 36s-15.833 11.5 -23.5 14.5s-13.834 5.83301 -18.501 8.5s-6 8.66699 -4 18c2.66699 10 9 19 19 27s21.5 13.833 34.5 17.5s26.333 4.5 40 2.5
s25.5 -8.33301 35.5 -19c10 -11.333 21.333 -22 34 -32s25.5 -18.5 38.5 -25.5s25.667 -12.333 38 -16s23.166 -4.83398 32.499 -3.50098s16.166 -0.166992 20.499 -4.5s5.33301 -9.66602 3 -15.999s-8.16602 -12.666 -17.499 -18.999s-22.333 -10.5 -39 -12.5
c-11.333 -2 -22.333 -1.83301 -33 0.5s-20.334 5.16602 -29.001 8.49902c-10 4 -19.333 8.66699 -28 14c6 -8 10.333 -17.667 13 -29c2.66699 -9.33301 4.33398 -21 5.00098 -35s-0.666016 -30.667 -3.99902 -50c-3.33301 -15.333 -8.83301 -32 -16.5 -50
s-18.5 -34.667 -32.5 -50s-31.5 -28.166 -52.5 -38.499s-46.5 -15.5 -76.5 -15.5c-44.667 0 -82 11.167 -112 33.5s-53.5 51.833 -70.5 88.5s-28.333 78.5 -34 125.5s-6.66699 95 -3 144s11.667 97.167 24 144.5s27.5 89.333 45.5 126zM132.001 297.997
c18.667 25.333 36.332 54.002 52.999 86.002c13.333 28 26.333 61 39 99s20.667 80.333 24 127c1.33301 18.667 0.333008 34.167 -3 46.5s-8 20.5 -14 24.5s-12.667 3.66699 -20 -1s-14.666 -14.334 -21.999 -29.001c-7.33301 -15.333 -13.833 -32 -19.5 -50
s-10.5 -36.667 -14.5 -56s-7.33301 -39 -10 -59s-5 -39 -7 -57c-4 -42.667 -6 -86.334 -6 -131.001z" />
    <glyph glyph-name="c" unicode="c" horiz-adv-x="335" 
d="M290 377c-2 -3.33301 -8.33496 -4.16504 -19.002 -2.49805s-23 2 -37 1s-28 -5.33301 -42 -13s-25.333 -22.167 -34 -43.5c-8 -21.333 -13.5 -44 -16.5 -68s-3 -46.833 0 -68.5s8.66699 -40.5 17 -56.5s19.5 -27 33.5 -33c20 -8 38 -10.667 54 -8s30.333 7.16699 43 13.5
s23.5 13.166 32.5 20.499s16.167 12 21.5 14c12.667 4 18.334 -0.833008 17.001 -14.5s-10.666 -31.167 -27.999 -52.5c-9.33301 -12 -21 -23.5 -35 -34.5s-29.667 -19.833 -47 -26.5s-36.166 -10.334 -56.499 -11.001s-41.833 3.33301 -64.5 12
c-21.333 8 -40.666 21 -57.999 39s-31.5 38.833 -42.5 62.5s-18.667 49.167 -23 76.5s-4 54.666 1 81.999s15 53.833 30 79.5s35.833 48.5 62.5 68.5c25.333 18 50.166 27.333 74.499 28s45.666 -2.66602 63.999 -9.99902s32.5 -16.833 42.5 -28.5s13.333 -20.5 10 -26.5z
" />
    <glyph glyph-name="d" unicode="d" horiz-adv-x="508" 
d="M291 354c4 44.667 7.34082 86.668 10.0078 126.001c2 34 3.66699 67.667 5 101s1.33301 58.666 0 75.999c-1.33301 16.667 2.5 32 11.5 46s19.5 26 31.5 36s24 17.667 36 23s20.667 8 26 8s8.5 -13.333 9.5 -40s1 -61.167 0 -103.5s-2.33301 -90.166 -4 -143.499
s-2.16699 -107 -1.5 -161c0.666992 -50 3.66699 -90.667 9 -122s12.166 -55.833 20.499 -73.5s17.166 -30.167 26.499 -37.5s18.333 -12.166 27 -14.499s16 -3.83301 22 -4.5s10 -3 12 -7c2.66699 -6 0.5 -13.667 -6.5 -23s-17.333 -17.333 -31 -24
s-29.834 -10.167 -48.501 -10.5s-38.334 5.16699 -59.001 16.5c-17.333 9.33301 -30.333 21.833 -39 37.5s-14.667 31.167 -18 46.5c-4 17.333 -5.66699 35.333 -5 54c-14.667 -26.667 -32 -50 -52 -70c-8.66699 -8.66699 -18.334 -17 -29.001 -25s-22.334 -15 -35.001 -21
s-26.334 -10.667 -41.001 -14s-30.334 -4.33301 -47.001 -3c-18 1.33301 -34.167 8.5 -48.5 21.5s-26.333 29.333 -36 49s-16.667 41.667 -21 66s-5.83301 48.666 -4.5 72.999s6 47.666 14 69.999s19.667 41.5 35 57.5c11.333 11.333 23.333 20 36 26
s25.5 9.83301 38.5 11.5s26 1.66699 39 0s25.167 -4.16699 36.5 -7.5c26.667 -8 53.667 -21.333 81 -40zM135.008 264.001c-6 -16 -9.83008 -32.834 -11.4971 -50.501s-2 -33.834 -1 -48.501s3.16699 -27 6.5 -37s7.33301 -15.333 12 -16
c9.33301 -2.66699 19.166 -0.666992 29.499 6s24.166 20.334 41.499 41.001c8 10.667 16.167 23.667 24.5 39s15.333 30.333 21 45s9.16699 27.667 10.5 39s-0.333984 18 -5.00098 20c-5.33301 2 -13.833 4 -25.5 6s-24 2.33301 -37 1s-25.667 -5.16602 -38 -11.499
s-21.5 -17.5 -27.5 -33.5z" />
    <glyph glyph-name="e" unicode="e" horiz-adv-x="386" 
d="M46 382c9.33301 18 21.6719 33.667 37.0049 47s32.166 24.166 50.499 32.499s37.666 14.5 57.999 18.5s40.166 6 59.499 6c20 -1.33301 37.167 -7.83301 51.5 -19.5s24.5 -26.667 30.5 -45s7.16699 -38.833 3.5 -61.5s-13.5 -45.667 -29.5 -69
c-17.333 -25.333 -35.833 -44.333 -55.5 -57s-37.834 -21.667 -54.501 -27c-19.333 -6.66699 -38.333 -9.66699 -57 -9c-0.666992 -25.333 2 -47 8 -65c2.66699 -8 5.83398 -15.5 9.50098 -22.5s8.5 -13.167 14.5 -18.5s13.333 -9.16602 22 -11.499s18.667 -2.5 30 -0.5
c24 4 43.5 12.833 58.5 26.5s27.5 27.5 37.5 41.5s18.167 26.167 24.5 36.5s12.5 14.166 18.5 11.499c7.33301 -3.33301 11.166 -11.666 11.499 -24.999s-2.83398 -29 -9.50098 -47s-16.5 -36.5 -29.5 -55.5s-29.5 -35.167 -49.5 -48.5s-43 -22.5 -69 -27.5
s-55 -2.5 -87 7.5c-26 8 -47.667 20.667 -65 38s-31 37.333 -41 60s-16.667 47 -20 73s-3.83301 51.833 -1.5 77.5s7.33301 50.167 15 73.5s17.167 43.333 28.5 60zM139.006 273c8.66699 1.33301 18.3311 3.99902 28.998 7.99902c9.33301 3.33301 19.5 8.33301 30.5 15
s22.833 16 35.5 28c12 11.333 20.167 22.333 24.5 33s6.83301 19.667 7.5 27c0.666992 8.66699 -0.666016 16.667 -3.99902 24c-9.33301 2.66699 -19.333 2.66699 -30 0c-9.33301 -2.66699 -19.666 -8 -30.999 -16s-23 -20.667 -35 -38
c-9.33301 -13.333 -16 -25.166 -20 -35.499s-6.66699 -18.833 -8 -25.5c-1.33301 -8 -1 -14.667 1 -20z" />
    <glyph glyph-name="f" unicode="f" horiz-adv-x="336" 
d="M322 695c0 -10 -4.82812 -16.1719 -14.4951 -18.5049s-20.667 -3.66602 -33 -3.99902s-24.5 -1.66602 -36.5 -3.99902s-20.333 -8.5 -25 -18.5s-8.5 -22.167 -11.5 -36.5s-5.5 -30 -7.5 -47s-3.33301 -34.667 -4 -53s-1 -36.5 -1 -54.5
c0 -41.333 1.33301 -85.666 4 -132.999c7.33301 2 16.666 4.33301 27.999 7c9.33301 2 21 4.33301 35 7s30.667 5.66699 50 9c20 2.66699 35.833 2.66699 47.5 0s19.5 -6.5 23.5 -11.5s4.16699 -10.333 0.5 -16s-10.834 -9.5 -21.501 -11.5
c-22 -5.33301 -42.667 -11.166 -62 -17.499s-36.333 -12.5 -51 -18.5c-17.333 -7.33301 -32.666 -14.333 -45.999 -21c3.33301 -51.333 4.66602 -98 3.99902 -140c0 -18 -0.5 -36.167 -1.5 -54.5s-2.5 -35.166 -4.5 -50.499s-4.83301 -28.666 -8.5 -39.999
s-7.83398 -19.333 -12.501 -24c-9.33301 -8.66699 -19.5 -16.167 -30.5 -22.5s-21.333 -10.5 -31 -12.5s-18.167 -1.5 -25.5 1.5s-12 9.5 -14 19.5c-1.33301 5.33301 -2.33301 13.5 -3 24.5s-1.16699 23.333 -1.5 37s-0.333008 28.5 0 44.5s0.5 31.667 0.5 47
c0.666992 36.667 1.33398 76.334 2.00098 119.001c-2.66699 -1.33301 -5.33398 -3 -8.00098 -5c-6 -4 -14.333 -6.33301 -25 -7c-14.667 -2 -25.667 2 -33 12s-7.33301 23.333 0 40c3.33301 8 8.16602 15.333 14.499 22s13.166 12.667 20.499 18c8 6 17 11 27 15
c-3.33301 51.333 -4.33301 100.666 -3 147.999c0 20 0.666992 40.667 2 62s3.33301 42.166 6 62.499s6 39.5 10 57.5s9 33.667 15 47c10 22 22.5 38.5 37.5 49.5s30.833 17.833 47.5 20.5s33.334 2.5 50.001 -0.5s31.667 -7.5 45 -13.5s24.166 -12.333 32.499 -19
s12.5 -12 12.5 -16z" />
    <glyph glyph-name="g" unicode="g" horiz-adv-x="402" 
d="M463 115c14.667 6 26.002 8.66699 34.002 8s13 -3.16699 15 -7.5s1.16699 -9.83301 -2.5 -16.5s-9.5 -13 -17.5 -19c-6.66699 -4.66699 -14.834 -11 -24.501 -19l-30 -25.5l-30 -26.5c-9.66699 -8.66699 -17.834 -15.667 -24.501 -21
c4.66699 -31.333 7.33398 -63.166 8.00098 -95.499s-1.33301 -63.333 -6 -93s-12.334 -57 -23.001 -82s-25 -45.5 -43 -61.5c-25.333 -22.667 -51 -35.667 -77 -39s-49 1 -69 13s-35.667 30.5 -47 55.5s-14.666 54.5 -9.99902 88.5
c5.33301 34.667 16.166 65.334 32.499 92.001s33.5 49 51.5 67c21.333 21.333 44.333 39.666 69 54.999c-0.666992 5.33301 -2 12.666 -4 21.999c-1.33301 8 -3.66602 18.167 -6.99902 30.5l-13 47.5c-3.33301 11.333 -7.5 22.166 -12.5 32.499
s-9.83301 19.166 -14.5 26.499c-6 8.66699 -11.667 16.334 -17 23.001c-10.667 -12 -21.667 -22.667 -33 -32c-9.33301 -8 -19.666 -15.167 -30.999 -21.5s-22 -9.5 -32 -9.5c-10.667 0 -22.667 5.66699 -36 17s-25.166 26.333 -35.499 45s-18.333 40 -24 64
s-6.5 48.667 -2.5 74c4.66699 25.333 10.667 45.666 18 60.999s15.333 27.5 24 36.5s18 15.5 28 19.5s20 7 30 9c14.667 2.66699 32.167 0.666992 52.5 -6s39.666 -15.167 57.999 -25.5s34 -21 47 -32s19.167 -19.5 18.5 -25.5s-7.83398 -8.16699 -21.501 -6.5
s-29.334 3.83398 -47.001 6.50098s-35 4 -52 4s-28.833 -5.33301 -35.5 -16s-12 -23.334 -16 -38.001s-6.5 -29.334 -7.5 -44.001s-0.166992 -28.167 2.5 -40.5s7.66699 -21.5 15 -27.5c4 -3.33301 9.5 -2.16602 16.5 3.50098s15.167 12.667 24.5 21
s19.666 16.333 30.999 24s23.5 12.334 36.5 14.001s26.5 -1.66602 40.5 -9.99902s28.333 -24.5 43 -48.5c8.66699 -14 17.834 -30.167 27.501 -48.5s18.167 -44.5 25.5 -78.5l49 30.5c15.333 9.66699 31.333 18.167 48 25.5zM257.002 -252c4 11.333 6.5 25.832 7.5 43.499
s1.5 35.167 1.5 52.5c-0.666992 20 -1.66699 41 -3 63c-14 -12 -26.333 -24.667 -37 -38c-9.33301 -11.333 -17.5 -24.666 -24.5 -39.999s-9.83301 -31.666 -8.5 -48.999c1.33301 -16.667 5 -28.834 11 -36.501s12.5 -12 19.5 -13s13.667 0.333008 20 4
s10.833 8.16699 13.5 13.5z" />
    <glyph glyph-name="h" unicode="h" horiz-adv-x="461" 
d="M34 111c-0.666992 22 -1.33691 52.6709 -2.00391 92.0039s-0.833984 82.333 -0.500977 129s1.16602 94.5 2.49902 143.5s3.83301 93.833 7.5 134.5s8.83398 74.667 15.501 102s15.334 43 26.001 47c18.667 6.66699 37.167 7 55.5 1s34.833 -15.167 49.5 -27.5
s26.834 -26.333 36.501 -42s15.167 -29.834 16.5 -42.501c7.33301 -41.333 7.5 -78.666 0.5 -111.999s-16.833 -64 -29.5 -92s-26 -53.667 -40 -77s-24 -46 -30 -68c16.667 30 35.334 55.333 56.001 76c8.66699 8.66699 18 16.667 28 24s20.667 13 32 17s23 6 35 6
s24.333 -3.33301 37 -10c20.667 -10.667 36.5 -25.834 47.5 -45.501s19 -41.667 24 -66s8.16699 -49.833 9.5 -76.5s2.83301 -52.334 4.5 -77.001s4.5 -47.5 8.5 -68.5s11.333 -37.833 22 -50.5c15.333 -18 28.666 -30.5 39.999 -37.5s21 -11.333 29 -13
s14.5 -2.33398 19.5 -2.00098s8.83301 -0.833984 11.5 -3.50098c2 -2 3.5 -4.16699 4.5 -6.5s1 -4.66602 0 -6.99902s-3.83301 -5 -8.5 -8s-11.667 -6.16699 -21 -9.5c-18 -6 -41.167 -6.83301 -69.5 -2.5s-58.5 18.166 -90.5 41.499c-16 11.333 -28.167 27.333 -36.5 48
s-14.833 43.167 -19.5 67.5s-8.16699 49 -10.5 74s-5.16602 47.833 -8.49902 68.5s-8.16602 37.5 -14.499 50.5s-15.5 19.833 -27.5 20.5s-22.667 -3.83301 -32 -13.5s-17.333 -22.667 -24 -39s-12.167 -34.833 -16.5 -55.5s-7.83301 -41 -10.5 -61s-4.66699 -39 -6 -57
s-2.33301 -32.333 -3 -43c-0.666992 -16.667 -4.66699 -28.334 -12 -35.001s-15.833 -10 -25.5 -10s-19.834 2.16699 -30.501 6.5s-19.334 8.83301 -26.001 13.5c-7.33301 5.33301 -12.666 13.333 -15.999 24s-5.66602 21.334 -6.99902 32.001
c-1.33301 12 -1.66602 25.333 -0.999023 40zM128.997 380.004l8.49805 25.499c5.66699 17 11.834 37.833 18.501 62.5s12.667 50.334 18 77.001s7.66602 50 6.99902 70c-1.33301 20 -4 37.167 -8 51.5s-8.66699 24 -14 29s-10.666 4.16699 -15.999 -2.5
s-9.66602 -21 -12.999 -43s-5.33301 -48.5 -6 -79.5s-0.5 -60.667 0.5 -89s2 -52.333 3 -72z" />
    <glyph glyph-name="i" unicode="i" horiz-adv-x="235" 
d="M4 262c2 16 4.66699 31.333 8 46s7.5 28.334 12.5 41.001s10.5 23.5 16.5 32.5s12.667 15.5 20 19.5c7.33301 3.33301 16.833 6.83301 28.5 10.5s22.667 5 33 4s18.166 -5.66699 23.499 -14s5 -22.833 -1 -43.5c-2.66699 -11.333 -5 -25.5 -7 -42.5
s-3.16699 -35.333 -3.5 -55s0.166992 -39.334 1.5 -59.001s3.83301 -37.834 7.5 -54.501s8.66699 -30.834 15 -42.501s14.166 -19.167 23.499 -22.5c19.333 -6.66699 36 -6 50 2s27 20.333 39 37c4.66699 7.33301 10.334 13.5 17.001 18.5s12.167 7.16699 16.5 6.5
s6.5 -5 6.5 -13s-4.33301 -21.333 -13 -40c-9.33301 -19.333 -21.166 -36.333 -35.499 -51s-30.333 -26.167 -48 -34.5s-36.5 -13.166 -56.5 -14.499s-40 1.66699 -60 9c-20 6.66699 -36.333 16.167 -49 28.5s-22.5 28.833 -29.5 49.5s-11.667 45.834 -14 75.501
s-2.83301 65.167 -1.5 106.5zM49 619c7.33301 14.667 18.5 23.668 33.5 27.001s29.667 3 44 -1s26.666 -10.833 36.999 -20.5s14.5 -20.834 12.5 -33.501c-2.66699 -15.333 -11.167 -28.5 -25.5 -39.5s-35.833 -15.167 -64.5 -12.5c-8 0.666992 -15.167 3.66699 -21.5 9
s-11.5 11.833 -15.5 19.5s-6.16699 16.167 -6.5 25.5s1.83398 18 6.50098 26z" />
    <glyph glyph-name="j" unicode="j" horiz-adv-x="414" 
d="M324 181c-3.33301 -4 -4.49707 -12.3311 -3.49707 -24.998s2.83301 -27.667 5.5 -45l8.5 -56c3 -20 4.5 -39.333 4.5 -58s-0.5 -34.834 -1.5 -48.501s-2.66699 -26.5 -5 -38.5s-5.33301 -23.833 -9 -35.5s-8.16699 -24.834 -13.5 -39.501
c-7.33301 -18.667 -15.333 -35.667 -24 -51s-18.834 -29 -30.501 -41s-25 -22 -40 -30s-32.5 -14 -52.5 -18c-38.667 -5.33301 -68 -1.66602 -88 11.001s-33.833 30.5 -41.5 53.5s-10.334 49.167 -8.00098 78.5s6.16602 57.666 11.499 84.999
c7.33301 52 23.833 100.5 49.5 145.5s60.834 82.5 105.501 112.5c-4 26 -11.167 51.5 -21.5 76.5s-20.5 48.333 -30.5 70s-18.333 40.834 -25 57.501s-8 29.667 -4 39c7.33301 5.33301 16.166 8.33301 26.499 9s21 -0.5 32 -3.5s21.833 -7 32.5 -12s19.667 -10.167 27 -15.5
c9.33301 -9.33301 17.333 -20.5 24 -33.5s12.5 -26.833 17.5 -41.5s9.33301 -29.667 13 -45s7.5 -29.333 11.5 -42c2.66699 1.33301 9 3.5 19 6.5s21.833 6.33301 35.5 10s28 7 43 10s29 4.83301 42 5.5s23.667 -0.333008 32 -3s12.5 -7.66699 12.5 -15
s-6.66699 -13.833 -20 -19.5s-28.833 -11.334 -46.5 -17.001l-52 -17c-17 -5.66699 -29.167 -12.167 -36.5 -19.5zM125.003 -186.998c14.667 -2 27.666 0.669922 38.999 8.00293s21 17 29 29s14.167 25.167 18.5 39.5s7.5 28.166 9.5 41.499c2 7.33301 3.5 18.833 4.5 34.5
s1 32 0 49s-3 33 -6 48s-7.16699 25.167 -12.5 30.5c-14.667 -8.66699 -28.667 -21.334 -42 -38.001s-25 -34.834 -35 -54.501s-18.167 -40.167 -24.5 -61.5s-10.166 -40.833 -11.499 -58.5s0.5 -32.667 5.5 -45s13.5 -19.833 25.5 -22.5zM177.002 512.005
c-5.33301 2 -11.8359 3.5 -19.5029 4.5s-15.167 2.66699 -22.5 5s-14 5.66602 -20 9.99902s-10 10.166 -12 17.499c-2.66699 17.333 -2 30.333 2 39s9.83301 14.334 17.5 17.001s16.334 2.83398 26.001 0.500977s19.334 -6.16602 29.001 -11.499s18.334 -11.333 26.001 -18
s13.5 -13 17.5 -19c4 -5.33301 5.33301 -11 4 -17s-4.33301 -11.333 -9 -16s-10.5 -8.33398 -17.5 -11.001s-14.167 -3 -21.5 -1z" />
    <glyph glyph-name="k" unicode="k" horiz-adv-x="488" 
d="M168 316c2.66699 6 10.168 15.3379 22.501 28.0049s27 24.667 44 36s35.167 20.833 54.5 28.5s37.333 9.5 54 5.5c23.333 -5.33301 42.666 -14.166 57.999 -26.499s25 -31.833 29 -58.5c2 -14.667 0.166992 -29.5 -5.5 -44.5s-14.167 -29.167 -25.5 -42.5
s-24.5 -25.333 -39.5 -36s-30.5 -18.334 -46.5 -23.001c-2 -0.666992 -1.83301 -5.5 0.5 -14.5s6.66602 -19.333 12.999 -31s14.666 -23.167 24.999 -34.5s22.5 -20 36.5 -26c15.333 -6.66699 30 -8.83398 44 -6.50098s27 7.16602 39 14.499s22.833 16 32.5 26
s18 19.667 25 29s12.667 17.166 17 23.499s7.16602 9.5 8.49902 9.5c6 -1.33301 9 -7.5 9 -18.5s-2.5 -24.167 -7.5 -39.5s-12.667 -31.666 -23 -48.999s-22.5 -33.166 -36.5 -47.499s-29.833 -25.833 -47.5 -34.5s-36.834 -12 -57.501 -10
c-25.333 2 -46.333 8.16699 -63 18.5s-30.167 22.5 -40.5 36.5s-18.333 28.667 -24 44s-9.66699 29.666 -12 42.999s-4.16602 24.166 -5.49902 32.499s-2.66602 12.166 -3.99902 11.499c-8 -2.66699 -16.167 -4.5 -24.5 -5.5s-15.666 -1.5 -21.999 -1.5h-15.5h-6
c-1.33301 -26 -2.66602 -50 -3.99902 -72s-2.33301 -39.667 -3 -53c0 -12.667 -4.5 -22.5 -13.5 -29.5s-19.167 -10.333 -30.5 -10s-22.833 4.83301 -34.5 13.5s-20.5 22.334 -26.5 41.001c-3.33301 10.667 -6 30 -8 58s-3.33301 60.667 -4 98
s-0.833984 77.166 -0.500977 119.499s1.16602 83 2.49902 122s3 74.5 5 106.5s4.66699 56 8 72c5.33301 30 13.833 55 25.5 75s24.834 35.667 39.501 47s30 18.5 46 21.5s31 2.16699 45 -2.5c30.667 -10 51.5 -26.167 62.5 -48.5s15.833 -48 14.5 -77
s-7.66602 -59.667 -18.999 -92s-24 -63.333 -38 -93s-28 -56.334 -42 -80.001zM182.001 214.005c13.333 17.333 26.665 30.6689 39.998 40.002c11.333 7.33301 23.833 11.333 37.5 12s26.834 -8 39.501 -26c18 17.333 27.167 33.666 27.5 48.999
s-6.16699 26.666 -19.5 33.999c-11.333 6.66699 -23.666 7.66699 -36.999 3s-26 -12.667 -38 -24s-22.5 -24.833 -31.5 -40.5s-15.167 -31.5 -18.5 -47.5zM154 410.008c-0.666992 0.666992 1.66602 7.99902 6.99902 21.999l19.5 52.5c7.66699 21 15.334 44 23.001 69
s13.667 48.5 18 70.5s6.33301 41.167 6 57.5s-4.83301 26.166 -13.5 29.499c-10.667 4 -19.334 -0.666992 -26.001 -14s-12.167 -31.166 -16.5 -53.499s-7.66602 -47.166 -9.99902 -74.499s-4 -52.833 -5 -76.5s-1.66699 -43.5 -2 -59.5s-0.5 -23.667 -0.5 -23z" />
    <glyph glyph-name="l" unicode="l" horiz-adv-x="348" 
d="M326 605c-2.66699 -30 -7.3291 -58.6729 -13.9961 -86.0059s-14.5 -53.333 -23.5 -78s-18.833 -48 -29.5 -70s-21.334 -42 -32.001 -60c-25.333 -42.667 -53.333 -81.334 -84 -116.001c0 -4.66699 1 -10.667 3 -18c1.33301 -6.66699 4 -14.834 8 -24.501
s10.333 -21.167 19 -34.5c17.333 -28 36.5 -45.5 57.5 -52.5s41.333 -7.66699 61 -2s36.834 15.667 51.501 30s24.667 28.833 30 43.5c5.33301 15.333 10.666 25.333 15.999 30s10.166 5.83398 14.499 3.50098s7.66602 -7.16602 9.99902 -14.499
s3.16602 -15.333 2.49902 -24c-11.333 -30 -25.666 -56.333 -42.999 -79c-7.33301 -10 -16 -19.667 -26 -29s-21 -17.666 -33 -24.999s-25.167 -13.166 -39.5 -17.499s-29.833 -6.16602 -46.5 -5.49902c-42.667 0.666992 -78.167 11 -106.5 31s-51.166 45.667 -68.499 77
s-29.666 66.833 -36.999 106.5s-11.5 79.834 -12.5 120.501s0.666992 79.834 5 117.501s9.5 70.5 15.5 98.5c6.66699 29.333 15.5 58.333 26.5 87s24.667 54 41 76s35.666 39.333 57.999 52s48.5 17.334 78.5 14.001c22 -3.33301 41 -11 57 -23
c13.333 -10 24.666 -25.167 33.999 -45.5s11.666 -47.833 6.99902 -82.5zM133.005 282.994c17.333 28.667 33.334 58.333 48.001 89c12.667 26 25 54.5 37 85.5s20.667 61.5 26 91.5c2.66699 14.667 5.16699 29.667 7.5 45s3.33301 29.5 3 42.5s-2.83301 24 -7.5 33
s-12.334 14.167 -23.001 15.5c-14 1.33301 -26.5 -3.5 -37.5 -14.5s-20.333 -26.333 -28 -46s-13.834 -43 -18.501 -70s-8 -55.667 -10 -86s-2.66699 -61.5 -2 -93.5s2.33398 -62.667 5.00098 -92z" />
    <glyph glyph-name="m" unicode="m" horiz-adv-x="860" 
d="M40 454c12.667 0.666992 24.0039 -1.16797 34.0039 -5.50098s18.667 -10 26 -17s13.666 -15.167 18.999 -24.5s9.66602 -19 12.999 -29c7.33301 -22.667 12 -48.667 14 -78c3.33301 6.66699 8 14.334 14 23.001c8 14 23 34.333 45 61c10.667 12.667 22 24.667 34 36
s25.5 20.5 40.5 27.5s31.5 10.833 49.5 11.5s38.667 -3.33301 62 -12c22.667 -8 40.5 -19 53.5 -33s23 -29.5 30 -46.5s12.167 -35 15.5 -54s7 -37.167 11 -54.5c6 -35.333 10.667 -55.833 14 -61.5s10.333 7.16602 21 38.499c5.33301 16.667 13.333 35.5 24 56.5
s23.334 39.667 38.001 56s30.667 28.166 48 35.499s35.333 6 54 -4c12.667 -7.33301 24.834 -17.833 36.501 -31.5s22 -30 31 -49s16.5 -40 22.5 -63s10 -47.167 12 -72.5c2 -26 4.83301 -47.667 8.5 -65s8.66699 -31 15 -41s14.666 -16.333 24.999 -19
s23.5 -2.33398 39.5 0.999023c12 2.66699 20.333 0.666992 25 -6s5 -14.334 1 -23.001s-12.5 -16.834 -25.5 -24.501s-30.5 -11.5 -52.5 -11.5c-21.333 0 -40.666 5.33301 -57.999 16s-33 24 -47 40s-26.5 33.833 -37.5 53.5s-20.333 39 -28 58s-14 36.167 -19 51.5
l-11.5 35c-4 12 -9 14.333 -15 7s-12.667 -19.166 -20 -35.499s-15 -34.666 -23 -54.999s-16 -37.833 -24 -52.5s-16.833 -28.667 -26.5 -42s-20.334 -23.333 -32.001 -30s-24.834 -8.16699 -39.501 -4.5s-31 15.167 -49 34.5c-12 12.667 -21.833 28.834 -29.5 48.501
s-14 40.667 -19 63s-9 44.833 -12 67.5s-5.33301 44 -7 64s-3.33398 37.167 -5.00098 51.5s-3.5 24.5 -5.5 30.5c-7.33301 16 -19.833 20.833 -37.5 14.5s-40.5 -25.5 -68.5 -57.5c-14 -15.333 -24 -36.166 -30 -62.499s-10 -53.166 -12 -80.499
s-2.66699 -52.666 -2 -75.999s1 -40 1 -50s-3.33301 -19 -10 -27s-15.334 -14 -26.001 -18s-23 -5.16699 -37 -3.5s-28 7.5 -42 17.5c-8.66699 6.66699 -16.334 21.5 -23.001 44.5s-12 49.833 -16 80.5s-6.83301 63.167 -8.5 97.5s-2 66 -1 95s3.33301 53.167 7 72.5
s8.83398 29.666 15.501 30.999z" />
    <glyph glyph-name="n" unicode="n" 
d="M39 365c4 6.66699 9.83691 12.834 17.5039 18.501s15.667 10.667 24 15s16.666 7.66602 24.999 9.99902s15.166 3.5 20.499 3.5c2.66699 0 4.83398 -2.66699 6.50098 -8s3.33398 -12.333 5.00098 -21s2.83398 -18.5 3.50098 -29.5l2 -33.5
c1.33301 -26.667 1.66602 -57 0.999023 -91c8.66699 17.333 18 34.333 28 51c8.66699 14 18.667 28.5 30 43.5s23 27.833 35 38.5c11.333 10 23.833 17.667 37.5 23s27.5 7.5 41.5 6.5s27.5 -6.16699 40.5 -15.5s24.5 -23.333 34.5 -42
c6.66699 -12.667 11.667 -28.5 15 -47.5s5.83301 -39 7.5 -60l5 -63.5c1.66699 -21.333 4.66699 -41 9 -59s10.333 -33.333 18 -46s18.834 -20.667 33.501 -24c12 -3.33301 23.833 -3.5 35.5 -0.5s22.667 7 33 12l27 13c7.66699 3.66699 13.167 4.5 16.5 2.5
c2.66699 -2.66699 1.16699 -10 -4.5 -22s-15 -24.333 -28 -37s-29.333 -23.5 -49 -32.5s-42.167 -11.833 -67.5 -8.5c-50 6.66699 -86 32.5 -108 77.5s-34.667 103.833 -38 176.5c-1.33301 26 -4.5 45.333 -9.5 58s-11.5 19.334 -19.5 20.001s-17.167 -3.83301 -27.5 -13.5
s-21.5 -23.5 -33.5 -41.5c-14 -20.667 -24.333 -41.334 -31 -62.001s-11.167 -40 -13.5 -58s-3.83301 -34 -4.5 -48s-2.33398 -24.333 -5.00098 -31c-3.33301 -7.33301 -10.333 -12.333 -21 -15s-22.167 -4 -34.5 -4s-24.333 1.33301 -36 4s-19.834 6 -24.501 10
c-2.66699 2.66699 -4.83398 12.167 -6.50098 28.5s-2.83398 36 -3.50098 59s-0.833984 47.667 -0.500977 74s1 51.333 2 75s2.5 44.167 4.5 61.5s4.33301 28.333 7 33z" />
    <glyph glyph-name="o" unicode="o" horiz-adv-x="383" 
d="M251 406c30.667 -18.667 54.3369 -41.498 71.0039 -68.498s27.5 -55.333 32.5 -85s4.16699 -59.167 -2.5 -88.5s-17.834 -55.833 -33.501 -79.5s-35.5 -43.167 -59.5 -58.5s-51.333 -23.333 -82 -24c-38.667 -0.666992 -71.167 7.83301 -97.5 25.5
s-46.5 40.167 -60.5 67.5s-22.167 57.166 -24.5 89.499s1.16699 62.666 10.5 90.999s24.666 52.5 45.999 72.5s48 31 80 33c29.333 2 50.666 5.16699 63.999 9.5s23 8.33301 29 12l12.5 7.5c2.33301 1.33301 7.16602 0 14.499 -4zM134.003 319.002
c-4 -4 -7.33398 -13.666 -10.001 -28.999s-4.5 -33.333 -5.5 -54s-0.833008 -42.334 0.5 -65.001s3.83301 -43.334 7.5 -62.001s8.83398 -34 15.501 -46s14.667 -17.333 24 -16s18.333 7.5 27 18.5s16.5 24.667 23.5 41s12.667 34.333 17 54s7 38.834 8 57.501
s-0.166992 35.667 -3.5 51s-9 27 -17 35c-18.667 19.333 -34.5 29.833 -47.5 31.5s-26.167 -3.83301 -39.5 -16.5z" />
    <glyph glyph-name="p" unicode="p" horiz-adv-x="454" 
d="M49 463c6 6.66699 13.001 9.49902 21.001 8.49902s16 -4.16699 24 -9.5s15.5 -11.666 22.5 -18.999s12.167 -13.666 15.5 -18.999c4 -6 7 -15.167 9 -27.5s3.5 -24.333 4.5 -36s2.16699 -21.167 3.5 -28.5s3.66602 -9 6.99902 -5l15 22.5
c7.33301 11 17.166 22.333 29.499 34s27.333 21.834 45 30.501s38.167 12 61.5 10c16.667 -1.33301 33.167 -5.5 49.5 -12.5s30.5 -17 42.5 -30s21.5 -29.167 28.5 -48.5s9.83301 -41.333 8.5 -66c-1.33301 -26 -6.33301 -48.833 -15 -68.5s-20.334 -36.334 -35.001 -50.001
s-31.167 -24.667 -49.5 -33s-37.5 -14.5 -57.5 -18.5c-35.333 -7.33301 -59.166 -10 -71.499 -8s-17.166 8.33301 -14.499 19c1.33301 5.33301 4 9.83301 8 13.5s9.5 7.33398 16.5 11.001s15.667 7.66699 26 12s22.5 10.166 36.5 17.499
c12.667 6.66699 24.167 16.5 34.5 29.5s17.5 27 21.5 42s4.33301 30.167 1 45.5s-12 28.666 -26 39.999c-23.333 19.333 -46.5 23.333 -69.5 12s-42.5 -35 -58.5 -71c-7.33301 -16 -13 -38.667 -17 -68s-6.83301 -61.5 -8.5 -96.5s-2.5 -71.167 -2.5 -108.5
s0.166992 -72.333 0.5 -105s0.5 -61.334 0.5 -86.001s-0.666992 -41.667 -2 -51c-2 -14 -7 -23 -15 -27s-17.333 -5 -28 -3s-21.5 6.5 -32.5 13.5s-20.167 14.5 -27.5 22.5c-2.66699 2.66699 -5 14.834 -7 36.501s-3.66699 49 -5 82s-2.33301 70.167 -3 111.5
s-1 83.5 -1 126.5s0.333008 85.167 1 126.5s1.66699 78.5 3 111.5s2.83301 60.167 4.5 81.5s3.5 33.333 5.5 36z" />
    <glyph glyph-name="q" unicode="q" 
d="M436 451c2 -2.66699 3.82715 -13 5.49414 -31s3.16699 -40.833 4.5 -68.5s2.5 -59 3.5 -94s1.5 -71.167 1.5 -108.5c19.333 12.667 35.666 25.5 48.999 38.5l33 33c8.66699 9 15.5 15 20.5 18s9.16699 1.16699 12.5 -5.5c2.66699 -5.33301 2.16699 -13.666 -1.5 -24.999
s-10.167 -24 -19.5 -38s-21.833 -28.667 -37.5 -44s-34.5 -29.666 -56.5 -42.999c0 -31.333 -0.333008 -61.833 -1 -91.5s-1.66699 -57 -3 -82s-2.83301 -46.667 -4.5 -65s-3.83398 -31.833 -6.50098 -40.5c-6 -20.667 -14.5 -36.834 -25.5 -48.501
s-22.167 -19.167 -33.5 -22.5s-21.333 -2.33301 -30 3s-14 15 -16 29c-1.33301 8 -2.16602 21.167 -2.49902 39.5s-0.5 39.666 -0.5 63.999s-0.166992 50.666 -0.5 78.999s-1.16602 56.833 -2.49902 85.5c-16 -3.33301 -32.667 -6 -50 -8s-35.666 -2.66699 -54.999 -2
c-31.333 0 -60 5.83301 -86 17.5s-48.167 28.334 -66.5 50.001s-31.666 47.5 -39.999 77.5s-9.83301 63.667 -4.5 101c6.66699 30.667 15 56.167 25 76.5s21.167 36.666 33.5 48.999s26 21.5 41 27.5s30.5 10.667 46.5 14c22.667 4.66699 43.334 2.33398 62.001 -6.99902
s34.834 -21 48.501 -35s24.667 -27.667 33 -41l16.5 -26c2.66699 -4 4.33398 0 5.00098 12s0.833984 26 0.500977 42s-0.333008 31.333 0 46s2.16602 22.667 5.49902 24c2.66699 1.33301 8.16699 3.33301 16.5 6s17.333 4.66699 27 6s19.334 1.33301 29.001 0
s17.5 -5.33301 23.5 -12zM296.994 91l12.5 1.99609c4.33301 0.666992 8.5 1.66699 12.5 3c-2.66699 28.667 -5.83398 54.834 -9.50098 78.501s-9.16699 43.167 -16.5 58.5c-8 16.667 -17.167 32.334 -27.5 47.001s-21.166 26.5 -32.499 35.5s-23.166 14.167 -35.499 15.5
s-24.5 -2.66699 -36.5 -12c-9.33301 -7.33301 -16.5 -18.833 -21.5 -34.5s-7.5 -32.667 -7.5 -51s3 -37 9 -56s15.5 -35.667 28.5 -50s29.667 -25.166 50 -32.499s45.166 -8.66602 74.499 -3.99902z" />
    <glyph glyph-name="r" unicode="r" horiz-adv-x="344" 
d="M17 391c-7.33301 4 -13.9961 6.33203 -19.9961 6.99902s-11.5 1 -16.5 1s-9.33301 0.5 -13 1.5s-6.83398 4.16699 -9.50098 9.5c-2 4.66699 1.16699 11 9.5 19s19.5 14.667 33.5 20s29.667 7.5 47 6.5s34 -7.83301 50 -20.5c14 -12 25.5 -23.5 34.5 -34.5
s16.167 -20.833 21.5 -29.5c6 -10 10.333 -19.667 13 -29c18.667 18 38 33 58 45c17.333 10.667 36.666 19.334 57.999 26.001s42.666 7 63.999 1c5.33301 -2 7.83301 -6.16699 7.5 -12.5s-3 -13.166 -8 -20.499s-11.833 -14.333 -20.5 -21s-19 -11.334 -31 -14.001
c-23.333 -5.33301 -41.833 -15.333 -55.5 -30s-24.167 -31.834 -31.5 -51.501s-12 -40.667 -14 -63s-3 -43.833 -3 -64.5c0.666992 -43.333 -5.33301 -75.5 -18 -96.5s-29.667 -32.167 -51 -33.5c-24.667 -1.33301 -43 10 -55 34s-18 64.667 -18 122
c0.666992 36 1 67.333 1 94s-1 49.167 -3 67.5s-5.33301 32.833 -10 43.5s-11.334 18.334 -20.001 23.001z" />
    <glyph glyph-name="s" unicode="s" horiz-adv-x="351" 
d="M264 487c2.66699 -5.33301 2.33008 -9.49707 -1.00293 -12.4971s-8.16602 -6 -14.499 -9s-13.5 -6.66699 -21.5 -11s-15.667 -10.5 -23 -18.5s-13.5 -18.333 -18.5 -31s-7.5 -28.667 -7.5 -48c-0.666992 -19.333 3.83301 -38 13.5 -56s21.5 -35.5 35.5 -52.5
s29.333 -33.667 46 -50s31.667 -33 45 -50s23.833 -34.333 31.5 -52s10.167 -35.834 7.5 -54.501c-3.33301 -18.667 -13.833 -34.5 -31.5 -47.5s-39.167 -23 -64.5 -30s-52.666 -10.833 -81.999 -11.5s-56.833 1.83301 -82.5 7.5s-47.834 14.5 -66.501 26.5
s-30.334 27.333 -35.001 46c-7.33301 27.333 -9.5 50.333 -6.5 69s8.5 34.167 16.5 46.5s17 22 27 29s18.667 12.5 26 16.5c15.333 8.66699 25.5 8.66699 30.5 0s1.83301 -22.334 -9.5 -41.001c-5.33301 -9.33301 -6.66602 -19.833 -3.99902 -31.5
s8.83398 -22.667 18.501 -33s22 -19.166 37 -26.499s32.167 -11.333 51.5 -12c12 -0.666992 24.167 0.5 36.5 3.5s22.5 7.66699 30.5 14s12.833 14 14.5 23s-1.83301 19.167 -10.5 30.5s-23.667 25.666 -45 42.999s-43.166 36.5 -65.499 57.5s-42 43.333 -59 67
s-25.5 47.5 -25.5 71.5c0 47.333 8.5 82 25.5 104s44.5 36.333 82.5 43c18.667 3.33301 34 4.83301 46 4.5s21.5 -1.83301 28.5 -4.5s12.167 -5.83398 15.5 -9.50098s6 -7.16699 8 -10.5z" />
    <glyph glyph-name="t" unicode="t" horiz-adv-x="320" 
d="M91 720c2 12 8.99805 18.6699 20.998 20.0029s24.667 -1.33398 38 -8.00098s25.666 -16.167 36.999 -28.5s17.333 -25.833 18 -40.5l2 -47c0.666992 -16 1.33398 -30.333 2.00098 -43c0.666992 -15.333 1.33398 -29.666 2.00098 -42.999c22.667 2 42.667 2.66699 60 2
c15.333 -0.666992 29 -2.66699 41 -6s18 -9.33301 18 -18c0 -9.33301 -5.83301 -17.333 -17.5 -24s-24.834 -12.334 -39.501 -17.001c-17.333 -5.33301 -36.666 -10 -57.999 -14l4 -130c0.666992 -36.667 0.833984 -75 0.500977 -115s-1.83301 -75 -4.5 -105
c-3.33301 -30 -8.5 -52 -15.5 -66s-14.833 -23 -23.5 -27s-17.667 -4.83301 -27 -2.5s-18 5.16602 -26 8.49902c-4 1.33301 -7.66699 8.33301 -11 21s-6 29 -8 49s-3.66699 42.5 -5 67.5s-2.33301 50.5 -3 76.5c-2 61.333 -3 130 -3 206c-18 -4 -34.667 -6 -50 -6
c-13.333 0 -25.666 2.16699 -36.999 6.5s-18.333 12.5 -21 24.5c-2 9.33301 2.16699 17.666 12.5 24.999s22.166 13.666 35.499 18.999c15.333 6 33.333 11.333 54 16v16c0 4.66699 0.166992 9.5 0.5 14.5s0.5 9.16699 0.5 12.5c0 26.667 -0.333008 48.334 -1 65.001
s-1 30.5 -1 41.5s0.333008 20 1 27s2 14.5 4 22.5z" />
    <glyph glyph-name="u" unicode="u" horiz-adv-x="484" 
d="M142 388c-0.666992 -6.66699 -1.33594 -17.999 -2.00293 -33.999s-1 -33.833 -1 -53.5s0.666992 -40.167 2 -61.5s3.66602 -40.833 6.99902 -58.5s8.33301 -32.167 15 -43.5s15.334 -17 26.001 -17c15.333 0 28.5 5.66699 39.5 17s20.5 25.666 28.5 42.999
s14.333 36.833 19 58.5s8.5 42.834 11.5 63.501s5 40 6 58s1.83301 32 2.5 42c0.666992 12 4.16699 20.667 10.5 26s14.166 8.16602 23.499 8.49902s19.333 -1.5 30 -5.5s20.667 -9 30 -15s17 -12.833 23 -20.5s9.33301 -15.167 10 -22.5
c0.666992 -10 0.333984 -24.5 -0.999023 -43.5s-2.5 -40.333 -3.5 -64s-1.5 -48 -1.5 -73s1.83301 -48 5.5 -69s9.33398 -39 17.001 -54s18.5 -24.167 32.5 -27.5c12.667 -3.33301 21.334 -7.66602 26.001 -12.999s5.16699 -10.5 1.5 -15.5s-11 -8.83301 -22 -11.5
s-25.833 -2.33398 -44.5 0.999023c-30.667 5.33301 -54.334 16 -71.001 32s-29 32.667 -37 50c-9.33301 20 -15 42 -17 66c-8.66699 -26.667 -20 -49.667 -34 -69c-12 -17.333 -27.5 -32.166 -46.5 -44.499s-42.167 -16.5 -69.5 -12.5s-49.833 12.833 -67.5 26.5
s-32 30.167 -43 49.5s-19.167 40.5 -24.5 63.5s-9 46.167 -11 69.5c-2 18.667 -3 37.334 -3 56.001s0.666992 36 2 52s3.33301 29.667 6 41s5.66699 18.666 9 21.999c4 3.33301 12.333 7 25 11s25.834 6.16699 39.501 6.5s25.834 -1.83398 36.501 -6.50098
s15.667 -14 15 -28z" />
    <glyph glyph-name="v" unicode="v" horiz-adv-x="425" 
d="M36 421c14.667 7.33301 29.834 10.834 45.501 10.501s29.667 -3.16602 42 -8.49902s22.166 -12.333 29.499 -21s10.333 -17.667 9 -27c-5.33301 -46 -5.5 -88.833 -0.5 -128.5s11.833 -73.334 20.5 -101.001s17.667 -47.834 27 -60.501s16.333 -15 21 -7s9 24.5 13 49.5
s9.83301 52.667 17.5 83s18.667 60.166 33 89.499s34.166 52.333 59.499 69c22 14 36.833 18.667 44.5 14s10.834 -15.334 9.50098 -32.001s-5.5 -37.5 -12.5 -62.5l-21.5 -76.5c-4.66699 -17.333 -11.334 -37.5 -20.001 -60.5s-18.5 -45.333 -29.5 -67s-23 -40.667 -36 -57
s-25.833 -25.833 -38.5 -28.5c-24 -5.33301 -44.833 -5.16602 -62.5 0.500977s-33.167 14.167 -46.5 25.5s-25.166 24.333 -35.499 39s-19.833 29 -28.5 43c-6 8.66699 -12.5 21.834 -19.5 39.501s-13.667 37.334 -20 59.001s-11.833 44.167 -16.5 67.5
s-7.5 45.166 -8.5 65.499s0.333008 38 4 53s10.5 24.833 20.5 29.5z" />
    <glyph glyph-name="w" unicode="w" horiz-adv-x="794" 
d="M46 403c14 6.66699 27.3301 9.99023 39.9971 9.99023s23.667 -2.33301 33 -7s16.666 -11.167 21.999 -19.5s7.66602 -17.166 6.99902 -26.499c-5.33301 -43.333 -5 -83.5 1 -120.5s14 -68.333 24 -94s20.5 -44.5 31.5 -56.5s18.5 -14.333 22.5 -7s8.66699 22.833 14 46.5
s12.166 49.834 20.499 78.501s18.833 56.834 31.5 84.501s28.667 49.167 48 64.5s36 23.666 50 24.999s26 -1.66699 36 -9s18.5 -17.833 25.5 -31.5s13.5 -27.5 19.5 -41.5c6 -14.667 11.5 -33.5 16.5 -56.5s10.333 -44.833 16 -65.5s11.667 -37.167 18 -49.5
s14.166 -15.166 23.499 -8.49902c6 4.66699 12.333 14.334 19 29.001s13.834 31.834 21.501 51.501l25 61.5c9 21.333 18.833 41 29.5 59s22.5 32.667 35.5 44s27.5 16.666 43.5 15.999c17.333 -0.666992 33.5 -5.16699 48.5 -13.5s28 -18 39 -29s19.5 -22.167 25.5 -33.5
s9 -20.666 9 -27.999s-3.66699 -11.166 -11 -11.499s-18.666 5.16699 -33.999 16.5c-16 11.333 -33.667 7.83301 -53 -10.5s-34.333 -51.166 -45 -98.499c-5.33301 -23.333 -11.166 -44.166 -17.499 -62.499s-14 -34 -23 -47s-20.167 -23.5 -33.5 -31.5
s-29.666 -13 -48.999 -15c-18 -2 -34.667 1.83301 -50 11.5s-29.166 22.334 -41.499 38.001s-22.666 32.834 -30.999 51.501s-13.833 36 -16.5 52c-3.33301 15.333 -6.16602 26.166 -8.49902 32.499s-4.66602 8.5 -6.99902 6.5s-5.16602 -7.66699 -8.49902 -17
s-8 -21.666 -14 -36.999l-16 -46c-5.33301 -15.333 -12.333 -29.5 -21 -42.5s-19.834 -24.667 -33.501 -35s-31.834 -17.833 -54.501 -22.5c-22 -4.66699 -42.833 -4.5 -62.5 0.5s-37.667 12.833 -54 23.5s-30.833 22.834 -43.5 36.501s-23 27.167 -31 40.5
c-5.33301 8.66699 -11.333 21.167 -18 37.5s-13 34.666 -19 54.999s-11.167 41.333 -15.5 63s-7 42 -8 61s0.333008 35.5 4 49.5s10.167 23.333 19.5 28z" />
    <glyph glyph-name="x" unicode="x" horiz-adv-x="476" 
d="M476 446c0.666992 -1.33301 2.16504 -2.83984 4.49805 -4.50684s3.83301 -4 4.5 -7s0.333984 -7.16699 -0.999023 -12.5s-5 -12 -11 -20l-30 -45.5c-10 -15 -21.333 -31 -34 -48s-27.5 -35.667 -44.5 -56s-37.5 -43.166 -61.5 -68.499c24 -24 48.833 -47.333 74.5 -70
s48.834 -44 69.501 -64s37.167 -38.333 49.5 -55s17.5 -30.667 15.5 -42c-1.33301 -6 -10.333 -6.83301 -27 -2.5s-38.167 12.5 -64.5 24.5s-56.333 27.333 -90 46s-68.167 39.667 -103.5 63c-5.33301 2.66699 -11.333 7.33398 -18 14.001
c-24.667 -23.333 -49.667 -44.5 -75 -63.5s-48 -33.833 -68 -44.5c6.66699 -8 11.334 -15.667 14.001 -23c2.66699 -6.66699 3.33398 -13.667 2.00098 -21s-6.33301 -14 -15 -20c-9.33301 -6.66699 -19.5 -8.16699 -30.5 -4.5s-19.5 10.834 -25.5 21.501
s-7.5 24.167 -4.5 40.5s14.167 34.166 33.5 53.499l45.5 47l62.5 67c-20 22 -39.333 46.333 -58 73s-35.667 53.834 -51 81.501s-28.5 55 -39.5 82s-18.833 51.833 -23.5 74.5s-5.66699 42.334 -3 59.001s10.334 28.667 23.001 36c10.667 6 22 5.83301 34 -0.5
s24.5 -16.666 37.5 -30.999s26.167 -31.833 39.5 -52.5s26.666 -42.5 39.999 -65.5l39.5 -70c13 -23.667 25.833 -45.5 38.5 -65.5c2.66699 -3.33301 5 -6.66602 7 -9.99902s4.33301 -6.66602 7 -9.99902l54.5 58.5l43 43.5c13 12.667 25.333 24.167 37 34.5
s24.167 20.833 37.5 31.5c17.333 14 32.166 22.667 44.499 26s19.166 3.33301 20.499 0z" />
    <glyph glyph-name="y" unicode="y" horiz-adv-x="459" 
d="M71 405c13.333 -1.33301 22.8271 -6.66211 28.4941 -15.9951s9.5 -20.5 11.5 -33.5s2.66699 -26.833 2 -41.5s-0.833984 -28.334 -0.500977 -41.001s2 -23.334 5 -32.001s9.16699 -13.334 18.5 -14.001c8 -1.33301 15.833 2 23.5 10s15.334 18.5 23.001 31.5
s15.667 27.5 24 43.5s17.5 31.667 27.5 47c7.33301 11.333 15.333 19.666 24 24.999s16.667 9 24 11c8.66699 2.66699 17.334 3.33398 26.001 2.00098c14 0.666992 28 -9.66602 42 -30.999c6 -9.33301 12.333 -21.166 19 -35.499s13.334 -32.333 20.001 -54
s13.334 -47.334 20.001 -77.001s13 -64.5 19 -104.5c8.66699 -56.667 10.5 -108.667 5.5 -156s-14.667 -89.5 -29 -126.5s-32.666 -68.833 -54.999 -95.5s-46.5 -47.834 -72.5 -63.501s-53 -25.667 -81 -30s-55.333 -2.83301 -82 4.5
c-25.333 7.33301 -47.833 21.5 -67.5 42.5s-34.5 45.5 -44.5 73.5s-13.5 57.833 -10.5 89.5s15.167 61.5 36.5 89.5c20.667 28 45.334 50.167 74.001 66.5s56.167 28 82.5 35s48.5 10.167 66.5 9.5s26.667 -3.33398 26 -8.00098c0 -5.33301 -4.83301 -11 -14.5 -17
l-37 -23.5c-15 -9.66699 -32 -22 -51 -37s-37.833 -34.167 -56.5 -57.5s-27.667 -45 -27 -65s8.16699 -34.833 22.5 -44.5s34.5 -12.167 60.5 -7.5s55 20.334 87 47.001c16 13.333 28.667 29.666 38 48.999s16 40.5 20 63.5s5.83301 46.833 5.5 71.5s-1.83301 49 -4.5 73
c-6.66699 56 -19.334 114.667 -38.001 176c-10.667 -20 -22.667 -38 -36 -54c-11.333 -13.333 -25.166 -25.5 -41.499 -36.5s-34.5 -16.5 -54.5 -16.5c-30 0 -54 6.5 -72 19.5s-31.167 29.167 -39.5 48.5s-12.666 40.333 -12.999 63s1.5 43.5 5.5 62.5
s9.83301 34.667 17.5 47s15.167 18.166 22.5 17.499z" />
    <glyph glyph-name="z" unicode="z" horiz-adv-x="359" 
d="M399 194c2 -5.33301 1.83594 -10.501 -0.49707 -15.501s-6.33301 -10.333 -12 -16s-12.5 -11.667 -20.5 -18l-24 -19.5c-20 -16.667 -34.667 -31 -44 -43c-5.33301 -6.66699 -9.66602 -12.334 -12.999 -17.001c10 -16 18 -35 24 -57c5.33301 -19.333 9 -43.5 11 -72.5
s-0.333008 -63.5 -7 -103.5c-5.33301 -33.333 -16 -62.666 -32 -87.999s-34.167 -46.166 -54.5 -62.499s-41.333 -28 -63 -35s-40.5 -8.83301 -56.5 -5.5c-13.333 4 -25.5 9.66699 -36.5 17s-19.667 18 -26 32s-10 31.667 -11 53s1.83301 47.666 8.5 78.999
c5.33301 26 11.166 47.667 17.499 65s14.666 34 24.999 50s23 32.667 38 50l55.5 64c-12 24 -24.333 40.667 -37 50s-24.334 16 -35.001 20l-27.5 10c-7.66699 2.66699 -12.5 9 -14.5 19c-2 6.66699 0 13.667 6 21s13.667 14.833 23 22.5s19.5 15.5 30.5 23.5
s20.833 16.333 29.5 25s16 18.334 22 29.001s9.66699 21.5 11 32.5s-0.5 21.5 -5.5 31.5s-13.833 18.333 -26.5 25c-14.667 7.33301 -26.667 8.66602 -36 3.99902s-18 -10.5 -26 -17.5s-16.167 -13 -24.5 -18s-18.833 -3.83301 -31.5 3.5
c-6.66699 4 -10.834 10.833 -12.501 20.5s-0.666992 20.334 3 32.001s9.66699 23.5 18 35.5s19.166 22.333 32.499 31s29 14.667 47 18s38.333 2.33301 61 -3c43.333 -10.667 74 -31.334 92 -62.001s22.667 -68 14 -112c-4 -21.333 -12 -39.833 -24 -55.5
s-24.667 -28.5 -38 -38.5c-15.333 -12 -31.666 -22 -48.999 -30c6 0 12.667 -1.66699 20 -5c6.66699 -3.33301 14.334 -8.33301 23.001 -15s18 -16.667 28 -30c22 22.667 41.667 40.334 59 53.001s32.166 21.5 44.499 26.5s22.333 6.83301 30 5.5s12.5 -4.33301 14.5 -9z
M190.003 -208.001c11.333 33.333 18.332 61 20.999 83s3.33398 39.667 2.00098 53c-2 16 -6.33301 28.333 -13 37c-19.333 -22 -36.666 -44.333 -51.999 -67c-13.333 -20 -25.5 -42.167 -36.5 -66.5s-16.167 -48.833 -15.5 -73.5s4.16699 -41.5 10.5 -50.5
s14.166 -11.333 23.499 -7s19.333 14.333 30 30s20.667 36.167 30 61.5z" />
    <glyph glyph-name="braceleft" unicode="{" horiz-adv-x="406" 
d="M354 -173c-42 -24 -85.667 -28.0068 -131 -12.0068c-22 6.66699 -42.833 16.667 -62.5 30s-37 29.166 -52 47.499s-26.333 38.666 -34 60.999s-10.5 45.5 -8.5 69.5c3.33301 25.333 9 51.333 17 78s17.333 51.334 28 74.001c7.33301 12.667 13.5 24.334 18.5 35.001
s11.167 20.667 18.5 30c-13.333 9.33301 -26.333 17.833 -39 25.5s-26 16.167 -40 25.5c-9.33301 6 -17 11.333 -23 16s-10.667 11.667 -14 21c-2 4.66699 -0.166992 9.66699 5.5 15s13.334 10.5 23.001 15.5s20.667 10 33 15s24.333 9.5 36 13.5l31 11
c9 3.33301 15.167 5.66602 18.5 6.99902c6.66699 2.66699 10.667 6.5 12 11.5s0.833008 10.333 -1.5 16s-5.66602 10.834 -9.99902 15.501s-8.5 8.66699 -12.5 12c-10.667 8.66699 -22 17 -34 25s-23 17 -33 27s-17.833 21.167 -23.5 33.5s-7.16699 26.833 -4.5 43.5
c0.666992 11.333 3.33398 24.166 8.00098 38.499s10.667 28.333 18 42s16.166 26.167 26.499 37.5s21.5 19.666 33.5 24.999c14.667 6.66699 30.5 11.667 47.5 15s33 4.66602 48 3.99902s28 -3 39 -7s18.167 -9.66699 21.5 -17c5.33301 -11.333 6 -19 2 -23
s-10.833 -6.66699 -20.5 -8s-21.167 -2.66602 -34.5 -3.99902s-27 -5 -41 -11c-14 -8 -24.333 -18.5 -31 -31.5s-10.5 -26.5 -11.5 -40.5s0.5 -27.333 4.5 -40s9.66699 -22.334 17 -29.001c10 -10 19.167 -19.667 27.5 -29s15.833 -19.166 22.5 -29.499
s12.167 -21.666 16.5 -33.999s7.16602 -26.5 8.49902 -42.5c2 -16.667 -1.66699 -30.667 -11 -42s-21.5 -20.666 -36.5 -27.999s-31 -13.166 -48 -17.499s-31.5 -7.83301 -43.5 -10.5c5.33301 -3.33301 16.333 -8.66602 33 -15.999s33 -15.833 49 -25.5
s28.5 -19.667 37.5 -30s8.5 -19.833 -1.5 -28.5c-3.33301 -3.33301 -8.83301 -9.66602 -16.5 -18.999s-15.667 -21.5 -24 -36.5s-16 -33 -23 -54s-11.5 -45.167 -13.5 -72.5c-0.666992 -20 -0.166992 -38.167 1.5 -54.5s5.5 -31.166 11.5 -44.499s14.5 -25.166 25.5 -35.499
s25.5 -19.166 43.5 -26.499c20 -8 38.833 -9 56.5 -3s33.5 13.833 47.5 23.5s26 18.334 36 26.001s17.667 9.16699 23 4.5c4.66699 -4.66699 5.16699 -11.167 1.5 -19.5s-9.5 -17 -17.5 -26s-16.833 -17.5 -26.5 -25.5s-17.834 -13.667 -24.501 -17z" />
    <glyph glyph-name="bar" unicode="|" horiz-adv-x="311" 
d="M173 41c0 -6 -1.5 -14.4971 -4.5 -25.4971s-6.66699 -21 -11 -30s-9.33301 -15.833 -15 -20.5s-11.167 -4 -16.5 2c-4.66699 6 -8.5 17 -11.5 33s-5.16699 34.833 -6.5 56.5s-2.33301 45.167 -3 70.5s-1.16699 50.166 -1.5 74.499s-0.5 47.166 -0.5 68.499
s-0.333008 39 -1 53c-0.666992 35.333 -1.5 69.666 -2.5 102.999s-0.833008 68 0.5 104v52.5c0 21.667 1.16699 43.167 3.5 64.5s7 40.5 14 57.5s17.5 27.833 31.5 32.5c8 2.66699 14.667 -3.16602 20 -17.499s9.66602 -33.666 12.999 -57.999s5.83301 -52 7.5 -83
s3 -61.167 4 -90.5s1.5 -56.333 1.5 -81s0.333008 -43.334 1 -56.001c0.666992 -8.66699 0.333984 -20.5 -0.999023 -35.5s-2.83301 -30.667 -4.5 -47s-3.66699 -31.833 -6 -46.5l-5.5 -35c-1.33301 -10 -2.33301 -21.333 -3 -34l-2 -39.5
c-0.666992 -13.667 -1 -26.834 -1 -39.501v-33z" />
    <glyph glyph-name="braceright" unicode="}" horiz-adv-x="344" 
d="M83 -164c0.666992 6 5.3291 11.165 13.9961 15.498s19.167 9.16602 31.5 14.499s25.5 12 39.5 20s26.333 18.667 37 32s18.834 30.333 24.501 51s6.16699 46 1.5 76c-2 8.66699 -4.66699 18 -8 28s-7.66602 19.5 -12.999 28.5s-11.833 16.667 -19.5 23
s-16.5 10.5 -26.5 12.5c-9.33301 2 -18.166 5.5 -26.499 10.5s-15.166 11.167 -20.499 18.5s-8.33301 15.5 -9 24.5s2 18.167 8 27.5c7.33301 8.66699 14.833 16 22.5 22s14.834 13.333 21.501 22c3.33301 6 1.83301 12.5 -4.5 19.5s-14.166 14.833 -23.499 23.5
s-18.666 18.334 -27.999 29.001s-15.333 22.667 -18 36c-2 10.667 0 23.667 6 39s13.5 30.666 22.5 45.999s18.667 30 29 44s19.5 25 27.5 33c8 10 14.333 21.667 19 35s7.16699 26.666 7.5 39.999s-1.33398 26.5 -5.00098 39.5s-9.83398 24.5 -18.501 34.5
c-6.66699 8.66699 -13.667 13.334 -21 14.001s-14.5 0.5 -21.5 -0.5s-13.833 -1.33301 -20.5 -1s-13 4.16602 -19 11.499c-7.33301 10.667 -8.83301 19.834 -4.5 27.501s11.166 13.667 20.499 18s19.833 7 31.5 8s20.834 0.166992 27.501 -2.5
c24 -11.333 45 -26.166 63 -44.499s32 -38.833 42 -61.5s15.333 -46.167 16 -70.5s-4.33301 -47.833 -15 -70.5c-4 -9.33301 -11 -19.666 -21 -30.999l-31.5 -34l-32 -32c-10.333 -10 -18.5 -18.333 -24.5 -25c-8.66699 -9.33301 -8.83398 -17.833 -0.500977 -25.5
s19 -15.834 32 -24.501s25.667 -18.334 38 -29.001s18.5 -23.667 18.5 -39c-3.33301 -8.66699 -8.5 -16 -15.5 -22s-14.5 -11.667 -22.5 -17l-23 -16c-7.33301 -5.33301 -13 -12 -17 -20c1.33301 -3.33301 6.83301 -7.33301 16.5 -12l34 -17c13 -6.66699 26 -14.5 39 -23.5
s23.833 -19.5 32.5 -31.5c16.667 -23.333 27 -46.666 31 -69.999s6 -45 6 -65c0 -15.333 -2.5 -30.666 -7.5 -45.999s-12.833 -29.833 -23.5 -43.5s-24.667 -26.167 -42 -37.5s-38.333 -21 -63 -29c-7.33301 -2.66699 -16.166 -4.5 -26.499 -5.5s-21 -1 -32 0
s-21.333 3.33301 -31 7s-17.834 8.83398 -24.501 15.501z" />
    <glyph glyph-name="asciitilde" unicode="~" 
d="M265 233c-12 14.667 -20.334 28.0059 -25.001 40.0059l-12 31.5c-3.33301 9 -7.83301 16.5 -13.5 22.5s-15.167 10.667 -28.5 14c-12 0 -21 -3.16699 -27 -9.5s-10.5 -13.833 -13.5 -22.5s-5 -17.667 -6 -27s-2.16699 -17.333 -3.5 -24
c-1.33301 -7.33301 -4.33301 -14 -9 -20s-10.334 -11 -17.001 -15s-13.667 -6.5 -21 -7.5s-14.333 -0.5 -21 1.5c-11.333 6 -18.166 15.833 -20.499 29.5s-2.83301 26.167 -1.5 37.5c0.666992 12.667 4 26.667 10 42s14.333 29.5 25 42.5s23.5 24 38.5 33
s32.167 13.5 51.5 13.5c26.667 0 47.667 -3.5 63 -10.5s28.333 -16.5 39 -28.5s20.667 -26 30 -42s21.333 -32.333 36 -49c7.33301 -8.66699 14.833 -12.834 22.5 -12.501s14.834 3.33301 21.501 9s13.334 13 20.001 22s12.667 18 18 27l15 24.5
c4.66699 7.33301 9 11.666 13 12.999c-0.666992 -11.333 0.5 -20.833 3.5 -28.5s5.83301 -15.334 8.5 -23.001s4.5 -16.334 5.5 -26.001s-0.5 -21.834 -4.5 -36.501c-2 -8.66699 -5.66699 -16.5 -11 -23.5s-11 -13.333 -17 -19s-11.833 -10.334 -17.5 -14.001
s-10.5 -6.16699 -14.5 -7.5c-18 -6 -33.833 -9.16699 -47.5 -9.5s-25.834 1.5 -36.501 5.5s-20.167 10.167 -28.5 18.5s-16.5 17.833 -24.5 28.5z" />
    <glyph glyph-name="exclamdown" unicode="&#xa1;" horiz-adv-x="239" 
d="M61 33c-6.66699 9.33301 -10.333 19.668 -11 31.001s0 23.166 2 35.499s4.33301 24.666 7 36.999s4 24.166 4 35.499c0 16.667 -1.66699 36.167 -5 58.5s-5.66602 45 -6.99902 68s-0.166016 45.167 3.50098 66.5s12.5 39.333 26.5 54c2.66699 2 6 6.66699 10 14
s8.16699 14 12.5 20s9 9.66699 14 11s9.83301 -3 14.5 -13c10 -16.667 16.167 -34.667 18.5 -54s4.16602 -38.333 5.49902 -57c2 -27.333 4.66699 -55.166 8 -83.499s5.83301 -56.833 7.5 -85.5s1.5 -57.334 -0.5 -86.001s-7 -56.334 -15 -83.001
c-4 -9.33301 -10.333 -14.166 -19 -14.499s-17.834 1.83398 -27.501 6.50098s-19 10.834 -28 18.501s-15.833 14.5 -20.5 20.5zM127.001 606.002c-6 1.33301 -12.834 3.16895 -20.501 5.50195s-14.667 5.66602 -21 9.99902s-11.666 10.166 -15.999 17.499
s-5.83301 17 -4.5 29c0 7.33301 2.5 13.333 7.5 18s11.333 7.66699 19 9s16 1.5 25 0.5s17.5 -3.16699 25.5 -6.5c8.66699 -2.66699 15.167 -8.83398 19.5 -18.501s6 -19.667 5 -30s-4.83301 -19.166 -11.5 -26.499s-16 -10 -28 -8z" />
    <glyph glyph-name="cent" unicode="&#xa2;" 
d="M492 386c-2.66699 -8.66699 -6.6709 -12.834 -12.0039 -12.501s-11.666 3 -18.999 8s-15.5 11.5 -24.5 19.5s-18.833 15.667 -29.5 23c-13.333 9.33301 -25.666 15 -36.999 17s-19.333 3 -24 3v-33.5v-64c0 -25 0.166992 -52 0.5 -81s0.5 -56.667 0.5 -83
s-0.166992 -49.833 -0.5 -70.5s-0.5 -35.334 -0.5 -44.001c20 0.666992 37.667 4.66699 53 12s28.833 16.333 40.5 27s22 21.5 31 32.5l24 28.5c7 8 13.667 13 20 15s13.166 -0.666992 20.499 -8c5.33301 -5.33301 8 -12.666 8 -21.999s-2.16699 -19.333 -6.5 -30
s-10.166 -21.167 -17.499 -31.5s-15.666 -19.5 -24.999 -27.5c-14 -17.333 -34.167 -31.666 -60.5 -42.999s-52.5 -18.666 -78.5 -21.999c0 -6.66699 -0.333008 -18.167 -1 -34.5s-2.16699 -33.333 -4.5 -51s-6 -33.834 -11 -48.501s-11.833 -24 -20.5 -28
c-15.333 -6 -27.333 -3.5 -36 7.5s-15.167 25.5 -19.5 43.5s-7.5 37.167 -9.5 57.5l-5 50.5c0 1.33301 -5 2.83301 -15 4.5s-22.667 4.83398 -38 9.50098s-32.333 11.5 -51 20.5s-36.667 21.333 -54 37s-32.833 35.667 -46.5 60s-23.5 53.833 -29.5 88.5
c-6.66699 39.333 -5.83398 75.5 2.49902 108.5s23 62.333 44 88s47.333 47.5 79 65.5s67.167 31.667 106.5 41c2 0 3 2.5 3 7.5s-0.166992 12.167 -0.5 21.5s0.166992 20.166 1.5 32.499s4.66602 26.166 9.99902 41.499c0 4.66699 1.16699 10.334 3.5 17.001
s5.83301 12.667 10.5 18s10.334 9 17.001 11s14.334 0.666992 23.001 -4c4 -6.66699 7.66699 -16.167 11 -28.5s6.33301 -25.333 9 -39s4.83398 -27 6.50098 -40s2.16699 -23.833 1.5 -32.5c8.66699 -2.66699 17.667 -5.66699 27 -9c8 -3.33301 17 -7.33301 27 -12
s20.333 -10.667 31 -18c8 -7.33301 16 -15.333 24 -24s15 -17.5 21 -26.5s10.833 -17.833 14.5 -26.5s5.5 -16 5.5 -22zM135.996 265c-1.33301 -21.333 -0.666016 -42.999 2.00098 -64.999s7.83398 -42.167 15.501 -60.5s18.667 -34 33 -47s32.833 -21.5 55.5 -25.5
c-2.66699 34.667 -4.83398 67.5 -6.50098 98.5s-2.66699 61.5 -3 91.5s0.166992 60 1.5 90s4 61.333 8 94c-6 2 -14.667 -0.666992 -26 -8s-22.833 -18.833 -34.5 -34.5s-21.834 -34.834 -30.501 -57.501s-13.667 -48 -15 -76z" />
    <glyph glyph-name="sterling" unicode="&#xa3;" horiz-adv-x="431" 
d="M105 -36c-7.33301 -2.66699 -15.1689 -2.49707 -23.502 0.50293s-16.166 7.83301 -23.499 14.5s-13.833 14 -19.5 22s-9.5 15.667 -11.5 23c-0.666992 2 -0.166992 5.33301 1.5 10l5.5 15c2 5.33301 4 10.166 6 14.499s3.66699 6.83301 5 7.5c8 4 17.833 11 29.5 21
s23.334 22.333 35.001 37s21.667 31.5 30 50.5s13.166 39.167 14.499 60.5c0.666992 10.667 0.833984 21 0.500977 31s-0.833008 19 -1.5 27c-0.666992 9.33301 -1.66699 18.333 -3 27c-35.333 0 -60.333 3.66699 -75 11s-21 15.666 -19 24.999s11.167 18.166 27.5 26.499
s37.5 13.833 63.5 16.5c-2.66699 10 -6.16699 25.667 -10.5 47s-7.16602 44.5 -8.49902 69.5s0 50.333 4 76s12.667 47.667 26 66s32.666 31.333 57.999 39s59 6.5 101 -3.5c6.66699 -2 14.5 -4 23.5 -6s17.333 -5 25 -9s13.667 -9 18 -15s4.5 -13.333 0.5 -22
c-3.33301 -6.66699 -10.166 -9.66699 -20.499 -9s-22.333 2 -36 4s-28.167 3.33301 -43.5 4s-30 -2.66602 -44 -9.99902c-11.333 -6.66699 -18.666 -16.167 -21.999 -28.5s-4.33301 -26.166 -3 -41.499s4.33301 -31.166 9 -47.499s9.83398 -32 15.501 -47l15.5 -40
c4.66699 -11.667 8 -20.5 10 -26.5c0.666992 -1.33301 5.16699 -3 13.5 -5s18.166 -3.83301 29.499 -5.5s23.5 -3 36.5 -4s24.5 -0.833008 34.5 0.5c12 2 20.667 0 26 -6s7.5 -13 6.5 -21s-5.33301 -15.833 -13 -23.5s-18.834 -12.5 -33.501 -14.5
c-22 -5.33301 -41.833 -8 -59.5 -8s-26.5 -0.333008 -26.5 -1c0 -17.333 -1.83301 -36 -5.5 -56s-9.83398 -40.167 -18.501 -60.5s-20 -39.833 -34 -58.5s-31.333 -35.334 -52 -50.001c6 0.666992 16.333 2.16699 31 4.5s31.334 4.33301 50.001 6s38 2.5 58 2.5
s38.167 -1.83301 54.5 -5.5s29.5 -9.66699 39.5 -18s14.333 -19.833 13 -34.5c-0.666992 -10.667 -6.16699 -19 -16.5 -25s-23.833 -11 -40.5 -15s-35.5 -7.16699 -56.5 -9.5l-65.5 -7.5c-22.667 -2.66699 -45.334 -5.83398 -68.001 -9.50098s-43.667 -8.83398 -63 -15.501z
" />
    <glyph glyph-name="currency" unicode="&#xa4;" horiz-adv-x="680" 
d="M641 131c9.33301 -12 14.4971 -24.3301 15.4971 -36.9971s-0.666992 -24.334 -5 -35.001s-10.666 -19.167 -18.999 -25.5s-17.5 -8.83301 -27.5 -7.5c-14.667 4 -26.667 8.66699 -36 14s-17.5 11.5 -24.5 18.5s-13.5 15 -19.5 24l-20 30.5
c-10 19.333 -18.5 31.333 -25.5 36s-14.333 6 -22 4s-16.667 -5.66699 -27 -11s-23.833 -8.33301 -40.5 -9c-28 3.33301 -48.167 8 -60.5 14s-18.833 7.33301 -19.5 4c-14 -15.333 -26.833 -32 -38.5 -50s-25.167 -34.667 -40.5 -50c-17.333 -18 -30 -28.667 -38 -32
s-13 -2.33301 -15 3s-1.16699 14.333 2.5 27s8.5 26.167 14.5 40.5s12.833 28.5 20.5 42.5s14.834 25.667 21.501 35c6.66699 10 10 19 10 27s-1.83301 16.167 -5.5 24.5s-8.16699 17.166 -13.5 26.499s-9.33301 20.666 -12 33.999c-3.33301 8 -7.33301 20.667 -12 38
s-5.66699 38.333 -3 63c-4.66699 2.66699 -10.334 5.66699 -17.001 9l-22 12.5c-8.66699 5 -18.667 11.5 -30 19.5c-6 4.66699 -15.167 10.834 -27.5 18.501s-24.833 16 -37.5 25s-24 18.667 -34 29s-15.333 20.833 -16 31.5c-2 16.667 2.16699 26.334 12.5 29.001
s22.833 2 37.5 -2s29.5 -9.66699 44.5 -17s25.5 -12.333 31.5 -15c11.333 -6 21.333 -12.833 30 -20.5s19.334 -14.167 32.001 -19.5c11.333 -10 20 -15.667 26 -17s11.833 -0.5 17.5 2.5s12 7.33301 19 13s16.833 10.834 29.5 15.501
c13.333 6.66699 29.666 12.5 48.999 17.5s37.333 6.16699 54 3.5c14.667 -1.33301 27.834 -4.33301 39.501 -9s22 -9.16699 31 -13.5s16.333 -8 22 -11s9.83398 -3.5 12.501 -1.5c7.33301 6 15.666 14.333 24.999 25l28.5 34l29.5 35.5c10 11.667 19.667 21.667 29 30
s17.666 14.166 24.999 17.499s13.666 2.66602 18.999 -2.00098c4.66699 -6 5.66699 -15 3 -27s-7.66699 -25.5 -15 -40.5s-16 -30.333 -26 -46s-19.833 -30.167 -29.5 -43.5s-18.167 -24.333 -25.5 -33s-11.666 -13.667 -12.999 -15c5.33301 -11.333 9.33301 -23 12 -35
c2.66699 -10.667 4.33398 -23.167 5.00098 -37.5s-0.666016 -29.5 -3.99902 -45.5c-7.33301 -20.667 -14.333 -37.334 -21 -50.001l-12 -21c-2 -2 1.33301 -6.33301 10 -13l31.5 -24l37.5 -29.5c12.667 -10.333 21.667 -19.833 27 -28.5zM452.997 394.003l-32 25.5
c-10 7.66699 -25.667 13.167 -47 16.5c-20 2 -38 -0.333008 -54 -7s-27.333 -18 -34 -34c-11.333 -26 -15.333 -50.667 -12 -74s11 -43 23 -59s26.833 -27 44.5 -33s35.167 -5 52.5 3c19.333 6.66699 36 16 50 28s24.167 25.5 30.5 40.5s8 30.667 5 47
s-11.833 31.833 -26.5 46.5z" />
    <glyph glyph-name="yen" unicode="&#xa5;" horiz-adv-x="440" 
d="M442 233c-3.33301 -2 -7.83691 -5.33008 -13.5039 -9.99707s-12.667 -9.5 -21 -14.5s-17.833 -9.5 -28.5 -13.5s-22.667 -6.33301 -36 -7c-4.66699 -0.666992 -10 -1.33398 -16 -2.00098s-11.5 -1.33398 -16.5 -2.00098s-9.16699 -1.5 -12.5 -2.5s-5 -1.83301 -5 -2.5
v-30.5c0 -15.667 -0.333008 -32.5 -1 -50.5s-1.83398 -34.667 -3.50098 -50s-4.5 -25.333 -8.5 -30c-14 -12 -26.167 -15.5 -36.5 -10.5s-19.166 13.5 -26.499 25.5s-12.833 24.833 -16.5 38.5s-5.83398 23.167 -6.50098 28.5c-1.33301 7.33301 -2.5 15.666 -3.5 24.999
s-1.83301 18.333 -2.5 27l-2 30c-4.66699 0.666992 -14.667 1.83398 -30 3.50098s-31.833 3.83398 -49.5 6.50098s-34 6.5 -49 11.5s-24.167 11.5 -27.5 19.5c-1.33301 4.66699 0.833984 10.5 6.50098 17.5s11.5 11.167 17.5 12.5c3.33301 2 11.5 3 24.5 3
s27.167 -0.333008 42.5 -1s29.666 -1.33398 42.999 -2.00098s22 -0.666992 26 0c0.666992 8 0.666992 17.333 0 28s-1.66699 16 -3 16c-0.666992 0.666992 -3.16699 1.16699 -7.5 1.5s-9.33301 0.666016 -15 0.999023s-11.667 0.666016 -18 0.999023
s-12.166 0.5 -17.499 0.5c-12.667 1.33301 -25.167 1.83301 -37.5 1.5s-24.833 0.833984 -37.5 3.50098c-4 0.666992 -9.16699 2.66699 -15.5 6s-11.833 7.33301 -16.5 12s-8 9.66699 -10 15s-0.333008 10.666 5 15.999c6 7.33301 15.833 12.166 29.5 14.499s29 3.5 46 3.5
s34 -0.5 51 -1.5s31.833 -0.833008 44.5 0.5c0 -0.666992 0 0.666016 0 3.99902v12.5c0 5 -0.166992 10.333 -0.5 16s-1.16602 10.5 -2.49902 14.5c-1.33301 5.33301 -5 14 -11 26s-11.667 20.667 -17 26c-19.333 21.333 -38.333 44.166 -57 68.499
s-34.834 47.333 -48.501 69s-23.5 40.334 -29.5 56.001s-5.33301 25.5 2 29.5c2 1.33301 7 -0.833984 15 -6.50098s17.167 -13.334 27.5 -23.001l33.5 -32.5l34 -35l29 -31.5c8.66699 -9.66699 14.667 -16.5 18 -20.5c2 -2.66699 5.33301 -6.83398 10 -12.501
s9.33398 -11.667 14.001 -18s8.66699 -12.666 12 -18.999s5 -11.5 5 -15.5c12 8.66699 24 20.834 36 36.501s23.667 32 35 49l34 49c11.333 15.667 22.666 28.167 33.999 37.5c4.66699 3.33301 9.5 4 14.5 2s9.83301 -5.5 14.5 -10.5s8.83398 -11 12.501 -18
s6.83398 -13.833 9.50098 -20.5c1.33301 -4.66699 0 -12.167 -4 -22.5s-9.66699 -21.833 -17 -34.5s-15.666 -25.834 -24.999 -39.501l-26.5 -38l-21.5 -30c-6 -8.33301 -9.33301 -13.5 -10 -15.5c-5.33301 -7.33301 -8.33301 -16.666 -9 -27.999
s-1.33398 -21.666 -2.00098 -30.999c0 -2.66699 3.5 -5 10.5 -7s15.167 -3.83301 24.5 -5.5s19 -3.16699 29 -4.5s17.667 -2.66602 23 -3.99902c2 0 5.16699 -0.833008 9.5 -2.5s8.5 -3.83398 12.5 -6.50098s7.33301 -5.83398 10 -9.50098s3.66699 -7.5 3 -11.5
c-3.33301 -4.66699 -7.66602 -6.16699 -12.999 -4.5s-10.333 1.83398 -15 0.500977c-1.33301 -0.666992 -5 -1.83398 -11 -3.50098s-12.833 -3.16699 -20.5 -4.5l-23 -4c-7.66699 -1.33301 -13.834 -2.33301 -18.501 -3
c-9.33301 -1.33301 -15.666 -1.16602 -18.999 0.500977s-4 0.833984 -2 -2.49902c0.666992 -5.33301 1 -10.666 1 -15.999v-14c0 -4.66699 -0.333008 -9 -1 -13h33.5c16.333 0 33 -0.5 50 -1.5s31.833 -2.66699 44.5 -5s18.334 -6.16602 17.001 -11.499z" />
    <glyph glyph-name="brokenbar" unicode="&#xa6;" horiz-adv-x="287" 
d="M146 325c-4 -4 -8.50391 -6.49805 -13.5039 -7.49805s-9.66699 3.66699 -14 14s-8.33301 28.833 -12 55.5s-6.16699 65.667 -7.5 117s0.833984 92.333 6.50098 123s12.834 53.667 21.501 69s18 24.666 28 27.999s18.667 3.33301 26 0
c4.66699 -2.66699 8.33398 -10.667 11.001 -24s4.16699 -29.833 4.5 -49.5s0 -40.834 -1 -63.501s-2.66699 -44.334 -5 -65.001s-5.16602 -38.667 -8.49902 -54s-6.66602 -25.666 -9.99902 -30.999c-5.33301 -8 -8.5 -17 -9.5 -27s-1.5 -20.333 -1.5 -31
s-0.833008 -20.667 -2.5 -30s-5.83398 -17.333 -12.501 -24zM96.9961 -36.998c-0.666992 12.667 -1.83203 28.499 -3.49902 47.499s-2.16699 38.333 -1.5 58s3.5 37.5 8.5 53.5s13.5 27.333 25.5 34c9.33301 6 16.333 8.5 21 7.5s8.5 -3.66699 11.5 -8
s5.83301 -9.83301 8.5 -16.5s6.33398 -12.667 11.001 -18s7.33398 -12.166 8.00098 -20.499s0.5 -17.333 -0.5 -27s-2.33301 -19.5 -4 -29.5s-1.83398 -19 -0.500977 -27c-0.666992 -6.66699 -0.833984 -17.167 -0.500977 -31.5s0.5 -30 0.5 -47s-0.333008 -34.5 -1 -52.5
s-2 -34.5 -4 -49.5s-4.83301 -27 -8.5 -36s-8.5 -13.5 -14.5 -13.5c-10 1.33301 -18.333 9 -25 23s-12.334 30.167 -17.001 48.5s-8 37.333 -10 57s-3.33301 35.5 -4 47.5z" />
    <glyph glyph-name="section" unicode="&#xa7;" horiz-adv-x="402" 
d="M250 120c18 -4 33.5 -9.33496 46.5 -16.002s24.167 -14.334 33.5 -23.001s17.5 -18.334 24.5 -29.001s13.5 -22 19.5 -34c26 -44.667 22.333 -91.667 -11 -141c-8.66699 -12 -20.167 -22.5 -34.5 -31.5s-30 -16.167 -47 -21.5s-34 -9 -51 -11s-32.167 -2.33301 -45.5 -1
c-9.33301 0.666992 -21.333 2.83398 -36 6.50098s-28.667 8.5 -42 14.5s-24.5 13.167 -33.5 21.5s-12.5 17.5 -10.5 27.5c2 11.333 5.83301 18.666 11.5 21.999s12.667 4.33301 21 3s17.5 -3.83301 27.5 -7.5s20.667 -6.83398 32 -9.50098s23 -4 35 -4s23.667 3.33301 35 10
c10.667 6.66699 19.167 14.834 25.5 24.501s10.5 20 12.5 31s1.5 22 -1.5 33s-8.83301 21.167 -17.5 30.5c-9.33301 10.667 -19.333 19.334 -30 26.001s-22.167 13.334 -34.5 20.001s-25.5 14.334 -39.5 23.001s-28.333 20.667 -43 36
c-36.667 34.667 -62.334 71.334 -77.001 110.001s-14.334 84.667 0.999023 138c4 13.333 10.333 25.833 19 37.5s17.167 22 25.5 31s15.333 16.167 21 21.5s7.5 8.33301 5.5 9c-20 12 -34.333 27.833 -43 47.5s-13.667 39.834 -15 60.501s0 40.167 4 58.5
s8.66699 32.5 14 42.5c10 19.333 24.833 34.333 44.5 45s41 17.667 64 21s46 3.16602 69 -0.500977s43.167 -10.5 60.5 -20.5c17.333 -10.667 29.833 -20.167 37.5 -28.5s11.167 -15.333 10.5 -21s-4.83398 -9.33398 -12.501 -11.001s-17.834 -1.16699 -30.501 1.5
c-13.333 2.66699 -28.166 5.33398 -44.499 8.00098s-32.5 3.5 -48.5 2.5s-30.667 -4.5 -44 -10.5s-24 -16.333 -32 -31c-4 -9.33301 -6 -20.166 -6 -32.499s2 -24.333 6 -36s10.167 -22.334 18.5 -32.001s18.833 -16.5 31.5 -20.5c30 -10 56.833 -19.833 80.5 -29.5
s44.334 -20.167 62.001 -31.5s32.334 -24 44.001 -38s20.167 -30 25.5 -48c10 -32 12.5 -62.333 7.5 -91s-22.5 -52 -52.5 -70c-24 -16 -46.5 -26.5 -67.5 -31.5s-40.333 -6.5 -58 -4.5s-34 6.5 -49 13.5s-28.5 14.5 -40.5 22.5c4.66699 -3.33301 9.83398 -8.5 15.501 -15.5
s12.834 -14.833 21.501 -23.5s19.667 -17 33 -25s30.666 -14 51.999 -18zM131 373.998c-12 -11.333 -18.498 -24.166 -19.498 -38.499s1.83301 -28.166 8.5 -41.499s16.5 -24.833 29.5 -34.5s27.167 -15.334 42.5 -17.001s31 1.66602 47 9.99902s31 24.166 45 47.499
c6.66699 12.667 9.16699 24.834 7.5 36.501s-6.16699 22.334 -13.5 32.001s-16.333 18.167 -27 25.5s-21.334 13 -32.001 17c-9.33301 4 -18.333 5.16699 -27 3.5s-16.834 -4.83398 -24.501 -9.50098s-14.667 -10 -21 -16z" />
    <glyph glyph-name="dieresis" unicode="&#xa8;" 
d="M335 712c7.33301 16 16.834 24.333 28.501 25s22.5 -3.33301 32.5 -12s17.667 -19.834 23 -33.501s5.33301 -26.5 0 -38.5c-8 -17.333 -17.333 -26 -28 -26s-20.334 4.5 -29.001 13.5s-15.834 20.333 -21.501 34s-7.5 26.167 -5.5 37.5
c0.666992 4 0.833984 3.83301 0.500977 -0.5s-0.833008 -8.66602 -1.5 -12.999s-1.16699 -6.33301 -1.5 -6s0.5 6.83301 2.5 19.5zM95.001 723c14.667 12.667 28.6699 19.001 42.0029 19.001s24.666 -10 33.999 -30c4 -5.33301 9.33301 -11 16 -17
s13.334 -12.333 20.001 -19s12.167 -13.334 16.5 -20.001s6.16602 -13.667 5.49902 -21c-3.33301 -15.333 -10 -26.166 -20 -32.499s-21.167 -9 -33.5 -8s-25 5 -38 12s-24 16.333 -33 28s-14.833 25 -17.5 40s0 31.167 8 48.5c1.33301 2 0.666016 0.166992 -2.00098 -5.5
l-7 -15c-2 -4.33301 -2.83301 -5.83301 -2.5 -4.5s4.16602 9.66602 11.499 24.999z" />
    <glyph glyph-name="copyright" unicode="&#xa9;" horiz-adv-x="718" 
d="M669 194c-11.333 -21.333 -24.333 -39.0039 -39 -53.0039s-30.5 -26.667 -47.5 -38s-35 -22 -54 -32s-38.5 -21 -58.5 -33c-54.667 -31.333 -108.834 -46.666 -162.501 -45.999s-102 13.5 -145 38.5s-78 60.333 -105 106s-41.5 97.5 -43.5 155.5
c0 56 7.33301 111.333 22 166s38.667 104 72 148c17.333 24 34.5 42.167 51.5 54.5s35 21 54 26s39.333 7.16699 61 6.5s46.167 -2 73.5 -4c22 -2 43 -6.16699 63 -12.5s39.5 -13.666 58.5 -21.999s37.667 -17.166 56 -26.499s37.166 -18 56.499 -26
c12.667 -5.33301 27.334 -16.166 44.001 -32.499s32.334 -34.5 47.001 -54.5s27 -40 37 -60s15 -36 15 -48c-1.33301 -13.333 -4.5 -30.833 -9.5 -52.5s-10.667 -43.5 -17 -65.5l-18 -60c-5.66699 -18 -9.5 -29.667 -11.5 -35zM592 229.996
c11.333 16.667 20.835 34.832 28.502 54.499s13.167 40.167 16.5 61.5s4.16602 42.833 2.49902 64.5s-5.83398 42.5 -12.501 62.5c-7.33301 17.333 -14.666 32.166 -21.999 44.499s-15.666 23 -24.999 32s-20 16.5 -32 22.5s-26.333 11.667 -43 17
c-16 4 -31.5 9.33301 -46.5 16s-31 13.334 -48 20.001s-35.333 12.5 -55 17.5s-41.834 7.83301 -66.501 8.5c-22 0.666992 -40.667 -4 -56 -14s-28.333 -23 -39 -39s-19.667 -33.667 -27 -53s-14 -37.666 -20 -54.999c-11.333 -32 -19.833 -67.167 -25.5 -105.5
s-6.16699 -76 -1.5 -113s15.334 -71.833 32.001 -104.5s41.667 -59.334 75 -80.001c35.333 -24 70.333 -35.667 105 -35s67.667 9.16699 99 25.5s60.666 38.333 87.999 66s51.666 56.5 72.999 86.5c8.66699 12 12.834 17.833 12.501 17.5s-2 -2.66602 -5 -6.99902
l-8.5 -12.5c-2.66699 -4 -2.33398 -3.33301 0.999023 2zM341.002 208.994c-36.667 12 -66.3291 31.9961 -88.9961 59.9961s-34.667 61.333 -36 100c-2.66699 34.667 5.66602 64.167 24.999 88.5s43.666 42.333 72.999 54s60.5 16.334 93.5 14.001s62.167 -12.833 87.5 -31.5
c14.667 -10.667 20.667 -19.334 18 -26.001s-9.33398 -11.667 -20.001 -15s-23 -5.33301 -37 -6s-24.333 0 -31 2c-13.333 2.66699 -26.833 3.33398 -40.5 2.00098s-26.334 -4.83301 -38.001 -10.5s-21.167 -13.5 -28.5 -23.5s-11 -22.333 -11 -37
c-1.33301 -22.667 2 -40.667 10 -54s18.5 -22.666 31.5 -27.999s27.833 -7.16602 44.5 -5.49902s33 6.16699 49 13.5c4.66699 2 11.167 5 19.5 9s17 7.66699 26 11s17.333 5.66602 25 6.99902s13.167 0.333008 16.5 -3c8 -9.33301 6.33301 -22.166 -5 -38.499
s-27.333 -31.666 -48 -45.999s-43.5 -25.5 -68.5 -33.5s-47.167 -9 -66.5 -3z" />
    <glyph glyph-name="ordfeminine" unicode="&#xaa;" horiz-adv-x="436" 
d="M250 579c-6 -16 -13.335 -31.333 -22.002 -46s-19.167 -26.167 -31.5 -34.5s-26.333 -12.166 -42 -11.499s-33.167 9 -52.5 25c-16 12 -30 26.667 -42 44s-20 35.166 -24 53.499s-3.16699 36.5 2.5 54.5s18.167 34 37.5 48c28 22.667 57.833 33.167 89.5 31.5
s67.167 -15.834 106.5 -42.501c4.66699 -2.66699 9.16699 -3.83398 13.5 -3.50098s8.16602 0.5 11.499 0.5s6 -0.833008 8 -2.5s3.66699 -5.83398 5 -12.501c1.33301 -11.333 2.83301 -22.666 4.5 -33.999s3.83398 -22.666 6.50098 -33.999
c2 -17.333 5.5 -30.166 10.5 -38.499s10.5 -14.666 16.5 -18.999s12.333 -7.5 19 -9.5s12.334 -5.33301 17.001 -10c-6 -11.333 -14.167 -22.333 -24.5 -33s-23.166 -16.667 -38.499 -18c-7.33301 -1.33301 -15 0.166992 -23 4.5s-15.333 10.666 -22 18.999
s-12.5 18.333 -17.5 30s-7.83301 24.5 -8.5 38.5zM222.998 663c-9.33301 4 -17.833 8.5 -25.5 13.5s-15.167 9 -22.5 12s-14.833 4.33301 -22.5 4s-15.5 -4.16602 -23.5 -11.499c-12.667 -11.333 -20.334 -25 -23.001 -41s2 -31.333 14 -46
c10.667 -13.333 22.834 -18.833 36.501 -16.5s26.334 8.83301 38.001 19.5s20.667 23.667 27 39s8.16602 29.666 5.49902 42.999c-4.66699 2 -7.5 2 -8.5 0s-1.16699 -4.33301 -0.5 -7s1.66699 -5.16699 3 -7.5s2 -2.83301 2 -1.5z" />
    <glyph glyph-name="guillemotleft" unicode="&#xab;" horiz-adv-x="440" 
d="M273 271l48.002 -23.9951c20 -10 39.167 -21.833 57.5 -35.5s33 -28.5 44 -44.5s13.167 -32.667 6.5 -50c-2 -5.33301 -7 -7 -15 -5s-17.667 6.33301 -29 13s-23.5 14.5 -36.5 23.5l-38 26.5l-33 22.5c-9.66699 6.33301 -16.834 10.166 -21.501 11.499
c-18 6.66699 -31.5 15.5 -40.5 26.5s-14 22.833 -15 35.5s2 25.5 9 38.5s17.5 24.5 31.5 34.5c17.333 13.333 36 26.166 56 38.499s39.667 23.166 59 32.499c3.33301 2.66699 11.166 5.66699 23.499 9s24.333 5.33301 36 6s20.667 -1.33301 27 -6
s5.16602 -13.667 -3.50098 -27c-3.33301 0 -12 -4.33301 -26 -13s-29.667 -19.334 -47 -32.001s-34.666 -26.334 -51.999 -41.001s-31 -28 -41 -40zM318.002 423.005c-5.33301 -2 -14.6699 -6.99902 -28.0029 -14.999s-28.333 -17.5 -45 -28.5s-33.667 -23 -51 -36
s-32.5 -25.5 -45.5 -37.5s-22.833 -23 -29.5 -33s-7.66699 -17.333 -3 -22c7.33301 -8 16.333 -15.333 27 -22s21.667 -13 33 -19s22.5 -12.5 33.5 -19.5s20.833 -15.167 29.5 -24.5c8.66699 -6.66699 18.334 -16 29.001 -28s17.334 -24.667 20.001 -38
c1.33301 -6 0.833008 -11.5 -1.5 -16.5s-5.66602 -9 -9.99902 -12s-9.16602 -4.66699 -14.499 -5s-10 1.5 -14 5.5c-8 7.33301 -19.5 16.833 -34.5 28.5l-48.5 38.5c-17.333 14 -34.5 28.667 -51.5 44s-31.667 30.333 -44 45s-21 28.334 -26 41.001s-4.16699 23 2.5 31
c10 10.667 20.667 22.667 32 36s25 27.166 41 41.499s35.167 28.666 57.5 42.999s49.166 27.5 80.499 39.5c5.33301 0.666992 12.666 0.5 21.999 -0.5s18 -3 26 -6s13.833 -7 17.5 -12s2.16699 -11.167 -4.5 -18.5c-3.33301 -1.33301 -4.66602 -1.33301 -3.99902 0
s1.66699 2.5 3 3.5s2.5 1.5 3.5 1.5s0.166992 -1.66699 -2.5 -5z" />
    <glyph glyph-name="logicalnot" unicode="&#xac;" 
d="M397 129c-9.33301 14.667 -15.999 31.335 -19.999 50.002s-8 36 -12 52s-9.83301 29.5 -17.5 40.5s-20.167 16.5 -37.5 16.5c-3.33301 0 -14.333 0.666992 -33 2s-40.334 3.33301 -65.001 6s-49.834 6.5 -75.501 11.5s-47.5 11.167 -65.5 18.5s-29.667 15.833 -35 25.5
s0 21.167 16 34.5c10 8 24.5 14.167 43.5 18.5s40.167 7.16602 63.5 8.49902s47.5 1.5 72.5 0.5s48.333 -2.5 70 -4.5s40.334 -4.33301 56.001 -7s26.167 -4.66699 31.5 -6c14.667 0 27 -3.33301 37 -10s18.5 -15.167 25.5 -25.5s12.5 -21.833 16.5 -34.5
s7 -25.334 9 -38.001c0 -32 -3.16699 -60.167 -9.5 -84.5s-13.833 -43.5 -22.5 -57.5s-17.5 -22.667 -26.5 -26s-16.167 -0.333008 -21.5 9z" />
    <glyph glyph-name="registered" unicode="&#xae;" horiz-adv-x="699" 
d="M491 641c2 0.666992 6.49902 2.50391 13.499 5.50391s17.167 3.33301 30.5 1s29.666 -9.33301 48.999 -21s42 -31.834 68 -60.501c16 -16.667 26.333 -36.334 31 -59.001s6.16699 -46 4.5 -70s-5.16699 -48 -10.5 -72l-15 -66c-11.333 -52 -29.166 -98.5 -53.499 -139.5
s-54.166 -74.167 -89.499 -99.5s-76 -41.5 -122 -48.5s-96.667 -2.5 -152 13.5c-44.667 16.667 -83.667 41.667 -117 75s-59.5 71.166 -78.5 113.499s-30.167 87.333 -33.5 135s3 94.167 19 139.5c7.33301 19.333 16.166 39.166 26.499 59.499s22.333 39.333 36 57
s29.334 33.167 47.001 46.5s37.167 23 58.5 29c24.667 7.33301 49 9.83301 73 7.5s48 -6.5 72 -12.5s47.833 -12.5 71.5 -19.5s47.5 -11.833 71.5 -14.5c2 0 0.5 0.333008 -4.5 1s-9.33301 1.16699 -13 1.5s-5 0.5 -4 0.5s8.16699 -1 21.5 -3zM615.999 467.004
c-2.66699 16 -9.33105 29.165 -19.998 39.498s-22.167 20 -34.5 29s-24.166 18.5 -35.499 28.5s-19.333 22.667 -24 38c-36 16 -74.833 30.333 -116.5 43s-82.5 17.334 -122.5 14.001c-37.333 -3.33301 -68.5 -15 -93.5 -35s-44.833 -44.333 -59.5 -73
s-24.834 -59.667 -30.501 -93s-7.5 -65 -5.5 -95c2 -39.333 10.333 -77 25 -113s34.667 -67.667 60 -95s55 -49 89 -65s71 -23.667 111 -23c29.333 0 56.333 6.5 81 19.5s46.834 30.333 66.501 52s37 46.334 52 74.001s27 56.334 36 86.001s15.333 59.167 19 88.5
s4.5 56 2.5 80c-0.666992 5.33301 -0.833984 7.16602 -0.500977 5.49902s0.666016 -4.66699 0.999023 -9s0.666016 -9 0.999023 -14s0.666016 -8.5 0.999023 -10.5s0.333008 -1.16699 0 2.5s-1.16602 12.167 -2.49902 25.5zM392.002 235.002
c-25.333 18 -49.832 36.6689 -73.499 56.002l-73.5 58c-2.66699 -9.33301 -2.33398 -20.166 0.999023 -32.499s7.66602 -25 12.999 -38l15 -37.5c4.66699 -12 7.66699 -22.667 9 -32s-0.5 -16.5 -5.5 -21.5s-14.5 -6.83301 -28.5 -5.5
c-14.667 1.33301 -26.334 9.66602 -35.001 24.999s-15 34.5 -19 57.5s-5.33301 48.5 -4 76.5s5.16602 55.667 11.499 83s15.166 53 26.499 77s25 43.333 41 58c14 14 30 20.5 48 19.5s35 -6.5 51 -16.5s29.5 -23.167 40.5 -39.5s16.833 -32.5 17.5 -48.5
c2 -14 0.666992 -28 -4 -42s-12 -26.667 -22 -38s-22.5 -21 -37.5 -29s-31.833 -13.333 -50.5 -16c4 -8.66699 11.5 -16.334 22.5 -23.001s23.333 -13.334 37 -20.001l42 -20c14.333 -6.66699 27 -13.667 38 -21s19.333 -15.5 25 -24.5s6.83398 -19.167 3.50098 -30.5
c-4 -8 -10.167 -11.667 -18.5 -11s-17.166 3.16699 -26.499 7.5s-18.166 9.5 -26.499 15.5s-14.166 10.333 -17.499 13zM302.003 517.004c-11.333 -6 -20.333 -15.499 -27 -28.499s-11.834 -27 -15.501 -42s-6.16699 -30.333 -7.5 -46s-2.33301 -29.167 -3 -40.5
c14.667 8.66699 25.834 14.667 33.501 18s17.834 6.66602 30.501 9.99902c12.667 2 24.167 6 34.5 12s19.166 16.333 26.499 31c2.66699 7.33301 3 17 1 29s-6 23.333 -12 34s-14.167 18.667 -24.5 24s-22.5 5 -36.5 -1z" />
    <glyph glyph-name="degree" unicode="&#xb0;" horiz-adv-x="311" 
d="M276 552c-8.66699 -18.667 -21.1699 -35.3311 -37.5029 -49.998s-34.166 -24.334 -53.499 -29.001s-39.166 -2.66699 -59.499 6s-38.5 27.334 -54.5 56.001c-16.667 24.667 -25 52.167 -25 82.5s8.33301 58.166 25 83.499c4 8 9.16699 15 15.5 21s13 11 20 15s14 7 21 9
s12.5 3 16.5 3c30.667 0 56.834 -6.83301 78.501 -20.5s38.167 -30.5 49.5 -50.5s17.333 -41.333 18 -64s-4 -43.334 -14 -62.001zM202.997 552.003c16 12 25.501 28.3311 28.501 48.998s1 39.167 -6 55.5s-17.667 27.5 -32 33.5s-30.833 1 -49.5 -15
c-8 -5.33301 -13.667 -13.166 -17 -23.499s-4.66602 -21.5 -3.99902 -33.5s3 -23.667 7 -35s9.66699 -20.666 17 -27.999s15.666 -11.833 24.999 -13.5s19.666 1.83301 30.999 10.5z" />
    <glyph glyph-name="plusminus" unicode="&#xb1;" horiz-adv-x="488" 
d="M263 48c-12 -0.666992 -28.001 -1.66797 -48.001 -3.00098s-40.5 -1.5 -61.5 -0.5s-40.5 3.66699 -58.5 8s-31 12.166 -39 23.499c-2 11.333 5.66699 21 23 29s39.5 14 66.5 18s56.5 6.5 88.5 7.5s62 0.666992 90 -1s51.333 -4.66699 70 -9s28.334 -9.83301 29.001 -16.5
c7.33301 -21.333 -2.5 -35.666 -29.5 -42.999s-70.5 -11.666 -130.5 -12.999zM40.999 360.999c1.33301 10 6.83105 17 16.498 21s21.334 6.66699 35.001 8s28.5 1.66602 44.5 0.999023s31.333 -0.666992 46 0c0.666992 5.33301 1.66699 16.333 3 33s1 35.334 -1 56.001
c-1.33301 24.667 4.16699 41 16.5 49s26 8.83301 41 2.5s29 -19.666 42 -39.999s19.5 -46.5 19.5 -78.5c-0.666992 -6.66699 2.66602 -11 9.99902 -13s16.833 -3.33301 28.5 -4s24.167 -0.833984 37.5 -0.500977s25.833 -0.333984 37.5 -2.00098s21 -4.83398 28 -9.50098
s9.83301 -11.667 8.5 -21c-1.33301 -10 -5.5 -17.667 -12.5 -23s-15.5 -9.16602 -25.5 -11.499s-20.833 -4 -32.5 -5s-22.5 -1.66699 -32.5 -2s-18.833 -1 -26.5 -2s-12.5 -2.83301 -14.5 -5.5c-2.66699 0 -5.16699 -0.166992 -7.5 -0.5s-4.16602 -3 -5.49902 -8
s-1.83301 -12.833 -1.5 -23.5s1.5 -26 3.5 -46c-2 -14 -5.16699 -27.167 -9.5 -39.5s-14.166 -20.166 -29.499 -23.499c-20 -2 -34.5 2.66699 -43.5 14s-15.167 25 -18.5 41s-4.83301 32 -4.5 48s-0.166992 27.667 -1.5 35c-15.333 -0.666992 -32.5 -1 -51.5 -1
s-36.667 1.5 -53 4.5s-29.333 8 -39 15s-12.167 17.5 -7.5 31.5z" />
    <glyph glyph-name="twosuperior" unicode="&#xb2;" horiz-adv-x="224" 
d="M48 519c-14.667 -2 -25.1699 -0.00195312 -31.5029 5.99805s-9.66602 13.833 -9.99902 23.5s2.16699 19.667 7.5 30s12 18.833 20 25.5c6.66699 5.33301 13.667 11.5 21 18.5s14 14.5 20 22.5s10.667 16.5 14 25.5s5 18.167 5 27.5c0 7.33301 -2.33301 12 -7 14
s-9.66699 1.66699 -15 -1s-10.166 -6.83398 -14.499 -12.501s-6.5 -12.5 -6.5 -20.5c-4.66699 -4 -9.16699 -1.83301 -13.5 6.5s-5.66602 18 -3.99902 29s7.5 20.5 17.5 28.5s27.333 9.66699 52 5c22 -7.33301 35.5 -18.166 40.5 -32.499s4.33301 -30 -2 -47
s-17 -33.833 -32 -50.5s-31.5 -31 -49.5 -43c16.667 0 30.834 0.166992 42.501 0.5s25.167 -1.83398 40.5 -6.50098c4.66699 -1.33301 10.667 -3.66602 18 -6.99902s13.166 -7.33301 17.499 -12s6.5 -9.5 6.5 -14.5s-4.33301 -9.83301 -13 -14.5
c-2 -1.33301 -7.33301 -1.66602 -16 -0.999023s-19 1.33398 -31 2.00098s-24.833 1 -38.5 1s-26.5 -1 -38.5 -3z" />
    <glyph glyph-name="threesuperior" unicode="&#xb3;" horiz-adv-x="186" 
d="M161 560c0 -14.667 -4.99707 -24.834 -14.9971 -30.501s-21.333 -10.167 -34 -13.5c-4 0 -10.333 0.166992 -19 0.5s-17.5 1.5 -26.5 3.5s-17.333 5 -25 9s-12.167 9.66699 -13.5 17c-2.66699 8 -2 13.833 2 17.5s9.5 5.83398 16.5 6.50098s14.833 0.666992 23.5 0l25 -2
c8 -0.666992 15 -0.666992 21 0s9.33301 3 10 7c0 3.33301 -4.16699 8 -12.5 14l-26.5 19c-9.33301 6.66699 -17.333 13.5 -24 20.5s-8.33398 13.5 -5.00098 19.5c4 4.66699 11 8.66699 21 12s20.5 6.5 31.5 9.5s20.833 6.16699 29.5 9.5s13.667 7.66602 15 12.999
c1.33301 10.667 0.166016 18 -3.50098 22s-9 6.33301 -16 7s-15 0.166992 -24 -1.5s-17.5 -3.16699 -25.5 -4.5s-15.167 -1.83301 -21.5 -1.5s-10.166 2.83301 -11.499 7.5c-4.66699 10.667 -2.83398 18.5 5.49902 23.5s18.833 8 31.5 9s25.5 0.5 38.5 -1.5
s21.833 -4.33301 26.5 -7c17.333 -12 25.666 -23.833 24.999 -35.5s-5.66699 -22.5 -15 -32.5s-20.5 -19.5 -33.5 -28.5s-23.167 -17.167 -30.5 -24.5c1.33301 -1.33301 5.33301 -3.66602 12 -6.99902s13.5 -7.5 20.5 -12.5s13.333 -11.167 19 -18.5s8.5 -16 8.5 -26z" />
    <glyph glyph-name="acute" unicode="&#xb4;" horiz-adv-x="431" 
d="M187 718c10.667 7.33301 23.168 13.998 37.501 19.998s28.5 10 42.5 12s27.5 1.5 40.5 -1.5s24.167 -10.167 33.5 -21.5c6 -8 4.5 -18.5 -4.5 -31.5s-22.167 -26.667 -39.5 -41s-37.333 -28.333 -60 -42s-44.667 -25.167 -66 -34.5s-40.333 -15.666 -57 -18.999
s-27.667 -2 -33 4c-7.33301 8.66699 -7 20.834 1 36.501s19 31.834 33 48.501s28.167 31.667 42.5 45s24.166 21.666 29.499 24.999z" />
    <glyph glyph-name="mu" unicode="&#xb5;" horiz-adv-x="622" 
d="M169 446c2 -17.333 2.99707 -35.333 2.99707 -54s-0.166992 -37.334 -0.5 -56.001s-0.5 -37.167 -0.5 -55.5s1.33301 -36.166 4 -53.499c0 -6 1.33301 -14.5 4 -25.5s6.5 -22.833 11.5 -35.5s11 -25 18 -37s14.667 -21.833 23 -29.5s17.166 -12.167 26.499 -13.5
s19 2.66699 29 12c18 10.667 33 24.834 45 42.501s21.833 37 29.5 58s13.334 42.667 17.001 65s5.83398 43.5 6.50098 63.5c-2 16.667 -0.666992 33.5 4 50.5s11.167 32.167 19.5 45.5s17.5 24.166 27.5 32.499s19.5 12.5 28.5 12.5s16.833 -5 23.5 -15
s10.667 -26.333 12 -49c2.66699 -20 3.33398 -44.667 2.00098 -74s-2.16602 -59.5 -2.49902 -90.5s1.16699 -60.833 4.5 -89.5s11 -52 23 -70c5.33301 -8.66699 13 -14.334 23 -17.001s20.333 -3.83398 31 -3.50098s21.334 1.33301 32.001 3s19.334 2.5 26.001 2.5
s10.667 -1.33301 12 -4s-1.33398 -8 -8.00098 -16c-14.667 -17.333 -31 -30.5 -49 -39.5s-36.333 -14.333 -55 -16s-36.667 0.5 -54 6.5s-32.5 15.833 -45.5 29.5s-22.833 31.167 -29.5 52.5s-8.66699 46.333 -6 75c-9.33301 -25.333 -21.166 -49.833 -35.499 -73.5
s-31.333 -42.167 -51 -55.5s-42.667 -19.333 -69 -18s-56.166 14 -89.499 38c-0.666992 -23.333 0 -49 2 -77s4.5 -56.167 7.5 -84.5l9 -82c3 -26.333 5.5 -49.166 7.5 -68.499c2.66699 -28.667 -0.833008 -49.5 -10.5 -62.5s-21.334 -18.667 -35.001 -17
s-27.334 10.334 -41.001 26.001s-22.834 38.167 -27.501 67.5c-9.33301 70 -15.5 141.833 -18.5 215.5s-0.833008 147.834 6.5 222.501c0 14.667 -0.833008 34.167 -2.5 58.5l-5 76.5c-1.66699 26.667 -2.66699 52.667 -3 78s1.16699 46.666 4.5 63.999
c3.33301 5.33301 10.833 11.5 22.5 18.5s24 11.333 37 13s25 -0.5 36 -6.5s17.833 -19.333 20.5 -40z" />
    <glyph glyph-name="periodcentered" unicode="&#xb7;" horiz-adv-x="459" 
d="M253 373c8.66699 0 17.002 -2.49902 25.002 -7.49902s14.667 -11.333 20 -19s8.66602 -16.167 9.99902 -25.5s-0.333984 -18 -5.00098 -26c-6 -10.667 -15.667 -20.5 -29 -29.5s-27 -14.333 -41 -16s-27 1.83301 -39 10.5s-19.667 25 -23 49c-2 13.333 0 23.666 6 30.999
s13.667 13 23 17s19 7 29 9s18 4.33301 24 7z" />
    <glyph glyph-name="cedilla" unicode="&#xb8;" horiz-adv-x="392" 
d="M181 -211c5.33301 3.33301 13.0029 5.00098 23.0029 5.00098s19.667 0.166992 29 0.5s16.833 2.5 22.5 6.5s6.5 11.667 2.5 23c-5.33301 16.667 -12.833 25.667 -22.5 27s-19.5 0.833008 -29.5 -1.5s-19.333 -4.33301 -28 -6s-15 2.83301 -19 13.5l-14 37
c-4.66699 12.667 -8.33398 25.667 -11.001 39s-3.83398 27.5 -3.50098 42.5s3.5 31.167 9.5 48.5c14 3.33301 24.833 -0.833984 32.5 -12.501s13.5 -26 17.5 -43s6.83301 -34 8.5 -51s4.16699 -29.167 7.5 -36.5c14 4 29.167 6 45.5 6s31.166 -2.83301 44.499 -8.5
s24 -15 32 -28s11 -30.5 9 -52.5c0.666992 -18 -6.5 -32 -21.5 -42s-32 -15.667 -51 -17s-37 2 -54 10s-26.833 21.333 -29.5 40c2.66699 2 4 2.66699 4 2s-0.333008 -1.5 -1 -2.5s-1.5 -1.66699 -2.5 -2s-1.16699 0.5 -0.5 2.5z" />
    <glyph glyph-name="onesuperior" unicode="&#xb9;" horiz-adv-x="238" 
d="M185 542c13.333 -3.33301 23.501 -7.99805 30.501 -13.998s10.167 -11.833 9.5 -17.5s-4.83398 -10 -12.501 -13s-19.5 -3.5 -35.5 -1.5c-8 0 -18.667 -0.166992 -32 -0.5s-26.5 -0.166016 -39.5 0.500977s-24.333 2.66699 -34 6s-14.5 9 -14.5 17c0 4 3.16699 8 9.5 12
s13.833 7.5 22.5 10.5s17 5 25 6s14 1.16699 18 0.5c2 16 3.16699 31.833 3.5 47.5s0.166016 31.5 -0.500977 47.5c-6 -2 -11 -5.33301 -15 -10l-12.5 -14c-4.33301 -4.66699 -8.83301 -9 -13.5 -13s-10.334 -6.66699 -17.001 -8
c-1.33301 -0.666992 -5.16602 -0.333984 -11.499 0.999023s-12.5 3.5 -18.5 6.5s-10.667 7.16699 -14 12.5s-3.33301 11.666 0 18.999c11.333 4 21.833 10.333 31.5 19s19.334 18.167 29.001 28.5l28.5 30.5c9.33301 10 19.333 18.333 30 25
c6.66699 0 12.167 -4.83301 16.5 -14.5s7.5 -21.834 9.5 -36.501s3.33301 -30.5 4 -47.5s1 -32.833 1 -47.5v-37c0 -10 0.666992 -15 2 -15z" />
    <glyph glyph-name="ordmasculine" unicode="&#xba;" horiz-adv-x="397" 
d="M325 512c-10 -22.667 -24.8359 -43 -44.5029 -61s-41.334 -29.667 -65.001 -35s-47.667 -2.83301 -72 7.5s-46.166 32.833 -65.499 67.5c-20 30 -30 63.167 -30 99.5s10 69.833 30 100.5c4.66699 10 10.834 18.5 18.501 25.5s15.834 13 24.501 18s17 8.66699 25 11
s14.667 3.5 20 3.5c37.333 0 68.833 -8.16699 94.5 -24.5s45.334 -36.5 59.001 -60.5s21 -49.833 22 -77.5s-4.5 -52.5 -16.5 -74.5zM236.997 512c12.667 10 22.002 22.334 28.002 37.001s8.83301 29.667 8.5 45s-3.33301 29.833 -9 43.5s-13.334 24.334 -23.001 32.001
s-21 11.167 -34 10.5s-26.833 -7.33398 -41.5 -20.001c-10 -6.66699 -17 -16.334 -21 -29.001s-5.66699 -26.167 -5 -40.5s3.66699 -28.333 9 -42s12.166 -25 20.499 -34s18.333 -14.167 30 -15.5s24.167 3 37.5 13z" />
    <glyph glyph-name="guillemotright" unicode="&#xbb;" 
d="M331 194c9.33301 13.333 22.1611 26.8281 38.4941 40.4951s28.833 27.834 37.5 42.501c5.33301 12 7.5 21 6.5 27s-4 10.833 -9 14.5s-11.5 6.83398 -19.5 9.50098s-16.667 6.33398 -26 11.001c-25.333 12 -49.666 24.5 -72.999 37.5s-46.333 28.167 -69 45.5
c-12.667 10 -20.167 18 -22.5 24s-1.5 10.167 2.5 12.5s10.5 3.5 19.5 3.5s18.667 -1 29 -3s20.333 -4.66699 30 -8s17.5 -6.66602 23.5 -9.99902c8 -4.66699 18.833 -10 32.5 -16s28.334 -12.833 44.001 -20.5s31.334 -15.834 47.001 -24.501s29.5 -18.167 41.5 -28.5
s21 -21.166 27 -32.499s7 -23.333 3 -36c-2.66699 -9.33301 -8.83398 -21.5 -18.501 -36.5s-21.167 -31 -34.5 -48s-27.666 -34.167 -42.999 -51.5s-30.166 -32.666 -44.499 -45.999s-27.166 -23.833 -38.499 -31.5s-19.666 -10.167 -24.999 -7.5
c-7.33301 3.33301 -10.333 10.666 -9 21.999s4.83301 23.833 10.5 37.5s12.167 27.334 19.5 41.001s14 24.167 20 31.5zM203.995 299.995c-4 4.66699 -11.498 10.1631 -22.498 16.4961l-37 20.5l-42.5 23.5c-14.667 8.33301 -27.834 16.833 -39.501 25.5
s-20.834 17.334 -27.501 26.001s-9 17.334 -7 26.001c7.33301 3.33301 19 3.66602 35 0.999023s34 -7.5 54 -14.5s40.833 -15.667 62.5 -26s41.334 -21.166 59.001 -32.499s32.167 -22.5 43.5 -33.5s17 -21.167 17 -30.5c0 -10 -4.16699 -23.167 -12.5 -39.5
s-19.166 -33.666 -32.499 -51.999s-28.333 -36.5 -45 -54.5s-33.334 -33.667 -50.001 -47s-32.334 -23 -47.001 -29s-27 -6.33301 -37 -1c-9.33301 5.33301 -14 12.833 -14 22.5s3.16699 21 9.5 34s15 26.833 26 41.5s23 29.334 36 44.001l38.5 42.5z" />
    <glyph glyph-name="onequarter" unicode="&#xbc;" horiz-adv-x="689" 
d="M610 131c0 -14 0.329102 -24.1709 0.996094 -30.5039s0.666992 -11.666 0 -15.999s-2.16699 -9.66602 -4.5 -15.999s-6.5 -16.5 -12.5 -30.5c-11.333 -21.333 -22.833 -32.333 -34.5 -33s-22.167 4.16602 -31.5 14.499s-17.333 24 -24 41s-10.334 32.5 -11.001 46.5
c-5.33301 -2 -16.5 -5 -33.5 -9s-35.833 -6 -56.5 -6s-41.334 3.5 -62.001 10.5s-37 20.5 -49 40.5c-9.33301 16 -13.5 32 -12.5 48s5.33301 31.333 13 46s17.834 28.834 30.501 42.501s26 26.5 40 38.5s27.667 23 41 33s24.333 18.667 33 26
c16.667 12 33.834 25.5 51.501 40.5s36.834 24.5 57.501 28.5c16 3.33301 28 3.33301 36 0s13.333 -8.33301 16 -15s3.16699 -14.667 1.5 -24s-4.16699 -18.166 -7.5 -26.499s-6.83301 -16 -10.5 -23s-6.16699 -11.5 -7.5 -13.5c-2 -7.33301 -2.66699 -17.333 -2 -30
s1.83398 -25.5 3.50098 -38.5s3.5 -24.167 5.5 -33.5s3.66699 -14 5 -14c2.66699 -5.33301 8.33398 -8 17.001 -8s17.834 0.166992 27.501 0.5s19.167 -0.5 28.5 -2.5s16 -7 20 -15s4.16699 -15.667 0.5 -23s-9.16699 -14.166 -16.5 -20.499s-16 -12 -26 -17
s-19 -8.83301 -27 -11.5zM359.996 170.996c9.33301 -0.666992 21.335 -0.333008 36.002 1s28.667 3 42 5s24.666 4 33.999 6s13.666 3.33301 12.999 4c-2 8 -3.16699 20 -3.5 36s-0.5 43 -0.5 81c0 -2 -6 -8.66699 -18 -20l-39.5 -38.5l-41 -42.5
c-13 -14 -20.5 -24.667 -22.5 -32zM105.998 126.997c-16 -12 -29.502 -14.1641 -40.502 -6.49707s-17.5 20.5 -19.5 38.5c-2 15.333 0.166992 32.166 6.5 50.499s14.333 36.666 24 54.999s20 35.833 31 52.5l27.5 43l60 95c20 30.667 39 62.334 57 95.001
c4 6 9.33301 17 16 33s14.167 31 22.5 45s17 23.667 26 29s18.167 0.666016 27.5 -14.001c8.66699 -13.333 12.834 -29.5 12.501 -48.5s-3.5 -39 -9.5 -60s-14.333 -42.833 -25 -65.5s-21.834 -44.167 -33.501 -64.5l-34 -57l-27.5 -43.5c-8 -12 -18.5 -25.5 -31.5 -40.5
s-25.667 -30.5 -38 -46.5s-23.5 -31.833 -33.5 -47.5s-16 -29.834 -18 -42.501c-2 -2 -3.16699 -2.83301 -3.5 -2.5s-0.166016 1 0.500977 2s1.33398 1.83301 2.00098 2.5s1 0 1 -2zM134.996 538c-0.666992 -4.66699 -2 -11.498 -4 -20.498s-4.66699 -18.167 -8 -27.5
s-7 -18 -11 -26s-8.66699 -13.667 -14 -17s-11 -3.5 -17 -0.5s-12.333 10.833 -19 23.5c-4 7.33301 -7.16699 17.666 -9.5 30.999s-3.83301 27.666 -4.5 42.999s-0.5 31.166 0.5 47.499s3.16699 31.166 6.5 44.499s7.5 24.333 12.5 33s11.167 13.334 18.5 14.001
c10 0.666992 18.333 -3.66602 25 -12.999s12 -21.5 16 -36.5s6.5 -31.167 7.5 -48.5s1.16699 -33 0.5 -47z" />
    <glyph glyph-name="onehalf" unicode="&#xbd;" horiz-adv-x="617" 
d="M367 -13c-28 0 -47.833 5.99219 -59.5 17.9922s-17.667 26.5 -18 43.5s4.16699 34.333 13.5 52s21.666 32.5 36.999 44.5c13.333 10 28 19.333 44 28s31 19.334 45 32.001s25.667 28.834 35 48.501s14 45.834 14 78.501c0 14 -5.5 21.833 -16.5 23.5
s-23.167 -0.5 -36.5 -6.5s-25.5 -15 -36.5 -27s-16.5 -25.333 -16.5 -40c-6.66699 -3.33301 -13 -1.5 -19 5.5s-10.5 16.333 -13.5 28s-3.66699 24.334 -2 38.001s7.33398 25.834 17.001 36.501s23.667 18.5 42 23.5s42.833 4.5 73.5 -1.5
c33.333 -6.66699 57 -17.667 71 -33s20.833 -33.166 20.5 -53.499s-6.66602 -42.5 -18.999 -66.5s-28 -47.833 -47 -71.5s-40.167 -46 -63.5 -67s-46.333 -38.833 -69 -53.5c15.333 0 30.666 1.33301 45.999 4l45.5 8c15 2.66699 30 4.33398 45 5.00098s29.5 -1 43.5 -5
c8.66699 -3.33301 19.5 -8.16602 32.5 -14.499s23.833 -13.5 32.5 -21.5s13.167 -16.667 13.5 -26s-7.5 -18.333 -23.5 -27c-12.667 2.66699 -28 4.16699 -46 4.5s-37.333 -0.166992 -58 -1.5l-64 -4c-22 -1.33301 -43 -2 -63 -2zM121 131.992
c-18.667 0.666992 -30.833 9.49414 -36.5 26.4941s-6.33398 39.333 -2.00098 67s12.833 58.834 25.5 93.501s27.834 69.667 45.501 105s37.167 69.333 58.5 102s43 60.834 65 84.501s43.5 41.334 64.5 53.001s39.833 13.834 56.5 6.50098
c8.66699 -10.667 11.167 -25 7.5 -43s-11.167 -37.833 -22.5 -59.5s-25.166 -44.167 -41.499 -67.5l-48.5 -67l-44 -59c-13.333 -18 -22.333 -32 -27 -42c-4.66699 -9.33301 -11 -24.166 -19 -44.499s-16.833 -41.166 -26.5 -62.499s-19.334 -41 -29.001 -59
s-18.5 -29.333 -26.5 -34c-4 0 -5.83301 0.5 -5.5 1.5s1.33301 1.66699 3 2s3 0.333008 4 0s0.5 -1.5 -1.5 -3.5zM26.001 565.986c-2 16 -4.66602 30.335 -7.99902 43.002s-5.16602 24 -5.49902 34s2 19.167 7 27.5s14.833 16.833 29.5 25.5
c6.66699 -4 12 -8.83301 16 -14.5s7.33301 -12.167 10 -19.5l8 -22.5c2.66699 -7.66699 6.33398 -15.5 11.001 -23.5c2 -6 3.5 -19.667 4.5 -41s1 -43.833 0 -67.5s-3 -44.834 -6 -63.501s-7.16699 -28 -12.5 -28c-19.333 0.666992 -32.833 6.66699 -40.5 18
s-12.334 24.666 -14.001 39.999s-1.83398 31.5 -0.500977 48.5s1.66602 31.5 0.999023 43.5z" />
    <glyph glyph-name="threequarters" unicode="&#xbe;" horiz-adv-x="594" 
d="M521 123c0 -28.667 -0.834961 -51.998 -2.50195 -69.998s-7.16699 -30.333 -16.5 -37c-10.667 -12 -19.834 -17 -27.501 -15s-14.167 7.83301 -19.5 17.5s-9.5 22 -12.5 37s-4.83301 29.5 -5.5 43.5c-5.33301 -2 -16.333 -4.33301 -33 -7s-35 -3.66699 -55 -3
s-39.333 3.66699 -58 9s-32.334 14.666 -41.001 27.999c-8 12 -7.83301 28.5 0.5 49.5s20.333 42.833 36 65.5s32.834 44.334 51.501 65.001s34.667 36.667 48 48l28.5 27c9.66699 9.33301 19.334 17.833 29.001 25.5s19.667 13.5 30 17.5s20.833 5 31.5 3
c13.333 -2.66699 21.333 -8.33398 24 -17.001s2.83398 -18 0.500977 -28s-6 -19.333 -11 -28l-10.5 -18c-2 -7.33301 -3.33301 -18.333 -4 -33s-0.666992 -29.334 0 -44.001s1.33398 -27.667 2.00098 -39s1.66699 -17 3 -17h10.5c6.33301 0 13.833 -0.5 22.5 -1.5
s17.167 -3.5 25.5 -7.5s14.5 -10 18.5 -18s4.33301 -14.667 1 -20s-8.5 -10 -15.5 -14s-15.167 -7.5 -24.5 -10.5zM341.998 177.002c9.33301 -0.666992 19.333 -1.16797 30 -1.50098s20.334 -0.333008 29.001 0s15.667 0.833008 21 1.5s7.66602 1.33398 6.99902 2.00098
c-2 8 -3.16699 20 -3.5 36s-0.5 43 -0.5 81c0 -2 -4 -8 -12 -18l-26.5 -33.5c-9.66699 -12.333 -19 -24.833 -28 -37.5s-14.5 -22.667 -16.5 -30zM133.998 103.001c-16 -12 -29.5049 -14.1611 -40.5049 -6.49414s-17.5 20.5 -19.5 38.5
c-2 15.333 0.166992 32.166 6.5 50.499s14.333 36.666 24 54.999s20 35.833 31 52.5l27.5 43l60 95c20 30.667 39 62.334 57 95.001c2.66699 4.66699 5.83398 11.667 9.50098 21s8 19.166 13 29.499s10.333 20.166 16 29.499s11.334 16.666 17.001 21.999
s11.667 7.66602 18 6.99902s12.5 -6 18.5 -16c8.66699 -13.333 12.334 -29.5 11.001 -48.5s-5.83301 -39 -13.5 -60s-17.667 -42.833 -30 -65.5s-25 -44.167 -38 -64.5l-37.5 -57l-29 -43.5l-28 -40.5l-31.5 -46.5c-10.333 -16 -19.333 -31.833 -27 -47.5
s-12.5 -29.834 -14.5 -42.501c-2 -2 -3.16699 -2.83301 -3.5 -2.5s-0.166016 1 0.500977 2s1.33398 1.83301 2.00098 2.5s1 0 1 -2zM204.993 457.007c0 -10 -2.5 -18.498 -7.5 -25.498s-11.333 -12.833 -19 -17.5s-16 -8.16699 -25 -10.5s-17.833 -4.5 -26.5 -6.5
c-4.66699 0 -12.834 0.166992 -24.501 0.5s-23.834 1.83301 -36.501 4.5s-24 6.66699 -34 12s-16 13 -18 23c-3.33301 10.667 -2.5 18.5 2.5 23.5s12.333 8 22 9s20.667 0.833008 33 -0.5s24 -2.33301 35 -3s20.5 -0.5 28.5 0.5s12.667 4.5 14 10.5
c0 5.33301 -5.83301 12 -17.5 20l-37 25.5c-13 9 -24.167 18.333 -33.5 28s-11.666 18.834 -6.99902 27.501c4.66699 6.66699 11.334 10.667 20.001 12l27 4c9.33301 1.33301 18.666 4.33301 27.999 9s17.333 14 24 28c2 14 1.16699 24.167 -2.5 30.5s-9 10 -16 11
s-15 0.666992 -24 -1s-17.833 -3.16699 -26.5 -4.5s-16.5 -1.5 -23.5 -0.5s-11.5 4.83301 -13.5 11.5c-6.66699 14.667 -4.5 25.667 6.5 33s25.5 11.666 43.5 12.999s36.833 0.5 56.5 -2.5s34.834 -7.16699 45.501 -12.5c13.333 -6.66699 23.166 -14.834 29.499 -24.501
s9.83301 -19.834 10.5 -30.501s-1.66602 -21.334 -6.99902 -32.001s-13.333 -20 -24 -28c-6.66699 -5.33301 -13.667 -9.33301 -21 -12s-14.666 -5.16699 -21.999 -7.5s-14 -4.66602 -20 -6.99902s-11 -5.5 -15 -9.5c1.33301 -2 6.16602 -5.16699 14.499 -9.5
s17.333 -10.5 27 -18.5s18 -18 25 -30s9.83301 -26.333 8.5 -43z" />
    <glyph glyph-name="questiondown" unicode="&#xbf;" 
d="M538 -18c0 -14.667 -6.66602 -30.5039 -19.999 -47.5039s-29 -33.5 -47 -49.5s-36.5 -30.167 -55.5 -42.5s-34.167 -21.166 -45.5 -26.499c-28 -12 -59.333 -17.167 -94 -15.5s-68.5 8.5 -101.5 20.5s-62.833 28.333 -89.5 49s-45.667 44 -57 70
c-16.667 34.667 -23.5 68.5 -20.5 101.5s12.5 63.667 28.5 92s36.833 53.833 62.5 76.5s52.834 41 81.501 55c14.667 6 29 11.167 43 15.5s28.667 7.5 44 9.5c18 2 30.333 5.83301 37 11.5s10.167 12.834 10.5 21.501s-1.16699 19 -4.5 31s-5.33301 25 -6 39
c-1.33301 12.667 -0.5 26.334 2.5 41.001s8 28.334 15 41.001s16.5 23.334 28.5 32.001s26.667 13 44 13c6 -2 11.667 -8.83301 17 -20.5s10.166 -25.834 14.499 -42.501s8.16602 -35 11.499 -55s6.16602 -39 8.49902 -57s4.33301 -34.333 6 -49l3.5 -31
c0.666992 -13.333 -2.16602 -23.166 -8.49902 -29.499s-15 -11 -26 -14s-23.667 -4.66699 -38 -5s-28.833 -1 -43.5 -2s-28.667 -2.83301 -42 -5.5s-24.666 -7.33398 -33.999 -14.001c-33.333 -22.667 -58 -48.167 -74 -76.5s-23.833 -56.333 -23.5 -84
s8.66602 -53 24.999 -76s40.5 -40.167 72.5 -51.5c22 -8 43 -10.833 63 -8.5s38.833 7.33301 56.5 15s34.334 16.667 50.001 27l43 28c13 8.33301 24.667 14.333 35 18s19.5 2.16699 27.5 -4.5c6 -4.66699 9.16699 -7.16699 9.5 -7.5s-0.333984 0.333984 -2.00098 2.00098
s-3.66699 3.16699 -6 4.5s-2.83301 1.66602 -1.5 0.999023zM332.001 684.996c18 8 32.834 9.33203 44.501 3.99902s19.667 -13.5 24 -24.5s5.16602 -22.333 2.49902 -34s-9.66699 -19.5 -21 -23.5c-22.667 -9.33301 -40.5 -11.666 -53.5 -6.99902s-21.5 12.167 -25.5 22.5
s-3.5 21.833 1.5 34.5s14.167 22 27.5 28z" />
    <glyph glyph-name="Agrave" unicode="&#xc0;" horiz-adv-x="579" 
d="M508 -71c-14.667 -2.66699 -24.3369 2.00098 -29.0039 14.001s-9 27.667 -13 47c-6 24 -11.833 53.667 -17.5 89s-16.167 72 -31.5 110c-2.66699 5.33301 -14.5 6.33301 -35.5 3s-47.833 -5 -80.5 -5c-9.33301 0.666992 -18.833 0.666992 -28.5 0
s-18.5 -1.66699 -26.5 -3s-14.5 -2.5 -19.5 -3.5s-7.5 -1.83301 -7.5 -2.5c-1.33301 -11.333 -2.83301 -27.5 -4.5 -48.5s-5.5 -41.667 -11.5 -62s-15 -37.666 -27 -51.999s-28.333 -20.5 -49 -18.5c-9.33301 0.666992 -15.833 9.66699 -19.5 27s-6.16699 37 -7.5 59
s-1.66602 43 -0.999023 63s1 33 1 39c-33.333 4.66699 -55.833 10.5 -67.5 17.5s-15.5 14.167 -11.5 21.5s14 14.333 30 21s35.667 12 59 16c2.66699 21.333 5.5 46.666 8.5 75.999s7.83301 59 14.5 89s15.834 58.333 27.501 85s27.167 48 46.5 64
c10 8 23.167 11.5 39.5 10.5s33.333 -6 51 -15s34.834 -22 51.501 -39s30.667 -37.167 42 -60.5c7.33301 -13.333 15 -29.166 23 -47.499s15.667 -37 23 -56l20.5 -53.5l14.5 -38c0.666992 -5.33301 6.66699 -8.16602 18 -8.49902s23.5 -0.166016 36.5 0.500977
s24.5 0.666992 34.5 0s14 -4.33398 12 -11.001c-0.666992 -4.66699 -5.66699 -9.83398 -15 -15.501s-19.666 -10.834 -30.999 -15.501s-21.666 -8.66699 -30.999 -12s-14 -5.33301 -14 -6c7.33301 -38 14.666 -73.333 21.999 -106s13 -61.334 17 -86.001
s5.33301 -44.667 4 -60s-7 -24.333 -17 -27zM255.997 501.001c-8.66699 -6 -15.168 -18.666 -19.501 -37.999s-7.16602 -40.833 -8.49902 -64.5s-2 -47.5 -2 -71.5s-0.333008 -44 -1 -60c4 -1.33301 15 -2.16602 33 -2.49902s36.833 -0.333008 56.5 0
s37.334 1.16602 53.001 2.49902s23.5 3 23.5 5c-0.666992 8 -3.66699 19.833 -9 35.5s-12 32.667 -20 51s-16.833 36.833 -26.5 55.5s-19.334 35.167 -29.001 49.5s-19 25.166 -28 32.499s-16.5 9 -22.5 5zM235.996 660.002
c-7.33301 4.66699 -15.8311 11.0039 -25.498 19.0039s-18.334 16.667 -26.001 26s-13.334 18.333 -17.001 27s-3.16699 16 1.5 22c3.33301 4 10 5.66699 20 5s21.333 -2.83398 34 -6.50098s25.834 -8.83398 39.501 -15.501s26 -14.334 37 -23.001s19.667 -18 26 -28
s8.83301 -20 7.5 -30c-3.33301 -8 -8.83301 -13.167 -16.5 -15.5s-16.334 -2.83301 -26.001 -1.5s-19.5 4.16602 -29.5 8.49902s-18.333 8.5 -25 12.5z" />
    <glyph glyph-name="Aacute" unicode="&#xc1;" horiz-adv-x="530" 
d="M508 -71c-14.667 -2.66699 -24.3369 2.00098 -29.0039 14.001s-9 27.667 -13 47c-6 24 -11.833 53.667 -17.5 89s-16.167 72 -31.5 110c-2.66699 5.33301 -14.5 6.33301 -35.5 3s-47.833 -5 -80.5 -5c-9.33301 0.666992 -18.833 0.666992 -28.5 0
s-18.5 -1.66699 -26.5 -3s-14.5 -2.5 -19.5 -3.5s-7.5 -1.83301 -7.5 -2.5c-1.33301 -11.333 -2.83301 -27.5 -4.5 -48.5s-5.5 -41.667 -11.5 -62s-15 -37.666 -27 -51.999s-28.333 -20.5 -49 -18.5c-9.33301 0.666992 -15.833 9.66699 -19.5 27s-6.16699 37 -7.5 59
s-1.66602 43 -0.999023 63s1 33 1 39c-33.333 4.66699 -55.833 10.5 -67.5 17.5s-15.5 14.167 -11.5 21.5s14 14.333 30 21s35.667 12 59 16c2.66699 21.333 5.5 46.666 8.5 75.999s7.83301 59 14.5 89s15.834 58.333 27.501 85s27.167 48 46.5 64
c10 8 23.167 11.5 39.5 10.5s33.333 -6 51 -15s34.834 -22 51.501 -39s30.667 -37.167 42 -60.5c7.33301 -13.333 15 -29.166 23 -47.499s15.667 -37 23 -56l20.5 -53.5l14.5 -38c0.666992 -5.33301 6.66699 -8.16602 18 -8.49902s23.5 -0.166016 36.5 0.500977
s24.5 0.666992 34.5 0s14 -4.33398 12 -11.001c-0.666992 -4.66699 -5.66699 -9.83398 -15 -15.501s-19.666 -10.834 -30.999 -15.501s-21.666 -8.66699 -30.999 -12s-14 -5.33301 -14 -6c7.33301 -38 14.666 -73.333 21.999 -106s13 -61.334 17 -86.001
s5.33301 -44.667 4 -60s-7 -24.333 -17 -27zM255.997 501.001c-8.66699 -6 -15.168 -18.666 -19.501 -37.999s-7.16602 -40.833 -8.49902 -64.5s-2 -47.5 -2 -71.5s-0.333008 -44 -1 -60c4 -1.33301 15 -2.16602 33 -2.49902s36.833 -0.333008 56.5 0
s37.334 1.16602 53.001 2.49902s23.5 3 23.5 5c-0.666992 8 -3.66699 19.833 -9 35.5s-12 32.667 -20 51s-16.833 36.833 -26.5 55.5s-19.334 35.167 -29.001 49.5s-19 25.166 -28 32.499s-16.5 9 -22.5 5zM262.996 659.002c-7.33301 -5.33301 -16.501 -11 -27.501 -17
s-22.167 -10.833 -33.5 -14.5s-21.833 -5.5 -31.5 -5.5s-16.167 3 -19.5 9c-3.33301 6.66699 0 18 10 34s23.333 31.5 40 46.5s34.334 26.833 53.001 35.5s34.667 9 48 1c6.66699 -6 9.5 -13.167 8.5 -21.5s-4 -16.666 -9 -24.999s-11.167 -16.333 -18.5 -24
s-14 -13.834 -20 -18.501z" />
    <glyph glyph-name="Acircumflex" unicode="&#xc2;" horiz-adv-x="580" 
d="M508 -71c-14.667 -2.66699 -24.3369 2.00098 -29.0039 14.001s-9 27.667 -13 47c-6 24 -11.833 53.667 -17.5 89s-16.167 72 -31.5 110c-2.66699 5.33301 -14.5 6.33301 -35.5 3s-47.833 -5 -80.5 -5c-9.33301 0.666992 -18.833 0.666992 -28.5 0
s-18.5 -1.66699 -26.5 -3s-14.5 -2.5 -19.5 -3.5s-7.5 -1.83301 -7.5 -2.5c-1.33301 -11.333 -2.83301 -27.5 -4.5 -48.5s-5.5 -41.667 -11.5 -62s-15 -37.666 -27 -51.999s-28.333 -20.5 -49 -18.5c-9.33301 0.666992 -15.833 9.66699 -19.5 27s-6.16699 37 -7.5 59
s-1.66602 43 -0.999023 63s1 33 1 39c-33.333 4.66699 -55.833 10.5 -67.5 17.5s-15.5 14.167 -11.5 21.5s14 14.333 30 21s35.667 12 59 16c2.66699 21.333 5.5 46.666 8.5 75.999s7.83301 59 14.5 89s15.834 58.333 27.501 85s27.167 48 46.5 64
c10 8 23.167 11.5 39.5 10.5s33.333 -6 51 -15s34.834 -22 51.501 -39s30.667 -37.167 42 -60.5c7.33301 -13.333 15 -29.166 23 -47.499s15.667 -37 23 -56l20.5 -53.5l14.5 -38c0.666992 -5.33301 6.66699 -8.16602 18 -8.49902s23.5 -0.166016 36.5 0.500977
s24.5 0.666992 34.5 0s14 -4.33398 12 -11.001c-0.666992 -4.66699 -5.66699 -9.83398 -15 -15.501s-19.666 -10.834 -30.999 -15.501s-21.666 -8.66699 -30.999 -12s-14 -5.33301 -14 -6c7.33301 -38 14.666 -73.333 21.999 -106s13 -61.334 17 -86.001
s5.33301 -44.667 4 -60s-7 -24.333 -17 -27zM255.997 501.001c-8.66699 -6 -15.168 -18.666 -19.501 -37.999s-7.16602 -40.833 -8.49902 -64.5s-2 -47.5 -2 -71.5s-0.333008 -44 -1 -60c4 -1.33301 15 -2.16602 33 -2.49902s36.833 -0.333008 56.5 0
s37.334 1.16602 53.001 2.49902s23.5 3 23.5 5c-0.666992 8 -3.66699 19.833 -9 35.5s-12 32.667 -20 51s-16.833 36.833 -26.5 55.5s-19.334 35.167 -29.001 49.5s-19 25.166 -28 32.499s-16.5 9 -22.5 5zM244.996 677.002c-8 -9.33301 -14.832 -18.166 -20.499 -26.499
s-11.167 -15.5 -16.5 -21.5s-11.166 -10.833 -17.499 -14.5s-13.833 -5.83398 -22.5 -6.50098c-8.66699 -1.33301 -13.5 2.33398 -14.5 11.001s0 19 3 31s7 24 12 36s9.16699 21 12.5 27c6 14 11.833 24.833 17.5 32.5s12.167 12.667 19.5 15
s15.666 2.16602 24.999 -0.500977s20.666 -7.33398 33.999 -14.001c9.33301 -5.33301 20.666 -14.666 33.999 -27.999s25.333 -27.5 36 -42.5s18.334 -29.167 23.001 -42.5s3 -22.666 -5 -27.999s-17.167 -5.33301 -27.5 0s-21 12.666 -32 21.999s-21.667 19 -32 29
s-19.833 17 -28.5 21z" />
    <glyph glyph-name="Atilde" unicode="&#xc3;" horiz-adv-x="579" 
d="M508 -71c-14.667 -2.66699 -24.3369 2.00098 -29.0039 14.001s-9 27.667 -13 47c-6 24 -11.833 53.667 -17.5 89s-16.167 72 -31.5 110c-2.66699 5.33301 -14.5 6.33301 -35.5 3s-47.833 -5 -80.5 -5c-9.33301 0.666992 -18.833 0.666992 -28.5 0
s-18.5 -1.66699 -26.5 -3s-14.5 -2.5 -19.5 -3.5s-7.5 -1.83301 -7.5 -2.5c-1.33301 -11.333 -2.83301 -27.5 -4.5 -48.5s-5.5 -41.667 -11.5 -62s-15 -37.666 -27 -51.999s-28.333 -20.5 -49 -18.5c-9.33301 0.666992 -15.833 9.66699 -19.5 27s-6.16699 37 -7.5 59
s-1.66602 43 -0.999023 63s1 33 1 39c-33.333 4.66699 -55.833 10.5 -67.5 17.5s-15.5 14.167 -11.5 21.5s14 14.333 30 21s35.667 12 59 16c2.66699 21.333 5.5 46.666 8.5 75.999s7.83301 59 14.5 89s15.834 58.333 27.501 85s27.167 48 46.5 64
c10 8 23.167 11.5 39.5 10.5s33.333 -6 51 -15s34.834 -22 51.501 -39s30.667 -37.167 42 -60.5c7.33301 -13.333 15 -29.166 23 -47.499s15.667 -37 23 -56l20.5 -53.5l14.5 -38c0.666992 -5.33301 6.66699 -8.16602 18 -8.49902s23.5 -0.166016 36.5 0.500977
s24.5 0.666992 34.5 0s14 -4.33398 12 -11.001c-0.666992 -4.66699 -5.66699 -9.83398 -15 -15.501s-19.666 -10.834 -30.999 -15.501s-21.666 -8.66699 -30.999 -12s-14 -5.33301 -14 -6c7.33301 -38 14.666 -73.333 21.999 -106s13 -61.334 17 -86.001
s5.33301 -44.667 4 -60s-7 -24.333 -17 -27zM255.997 501.001c-8.66699 -6 -15.168 -18.666 -19.501 -37.999s-7.16602 -40.833 -8.49902 -64.5s-2 -47.5 -2 -71.5s-0.333008 -44 -1 -60c4 -1.33301 15 -2.16602 33 -2.49902s36.833 -0.333008 56.5 0
s37.334 1.16602 53.001 2.49902s23.5 3 23.5 5c-0.666992 8 -3.66699 19.833 -9 35.5s-12 32.667 -20 51s-16.833 36.833 -26.5 55.5s-19.334 35.167 -29.001 49.5s-19 25.166 -28 32.499s-16.5 9 -22.5 5zM265.996 662.002l-13.9971 19
c-3.33301 4.66699 -6.33301 8.33398 -9 11.001s-5.16699 4.5 -7.5 5.5s-5.83301 1.5 -10.5 1.5c-9.33301 0 -15.833 -2.16699 -19.5 -6.5s-6.16699 -10.166 -7.5 -17.499c-2 -8 -6.66699 -14.167 -14 -18.5s-14.666 -5.16602 -21.999 -2.49902
c-8.66699 3.33301 -13.834 8.83301 -15.501 16.5s-1.83398 14.5 -0.500977 20.5c0.666992 6.66699 2.83398 14.167 6.50098 22.5s8.66699 16.166 15 23.499s13.666 13.666 21.999 18.999s17.5 8 27.5 8c12 0 21.667 -1 29 -3s13.833 -5 19.5 -9s11 -9 16 -15
s11.5 -13.333 19.5 -22c7.33301 -8 14.166 -11.833 20.499 -11.5s12 2.5 17 6.5s9.5 8.66699 13.5 14s7.33301 8.66602 10 9.99902c5.33301 -6 9 -13.667 11 -23s0.666992 -22 -4 -38c-2 -8.66699 -5.16699 -16 -9.5 -22s-12.166 -10.667 -23.499 -14
c-14.667 -4.66699 -27.834 -4.5 -39.501 0.5s-21.834 13.167 -30.501 24.5z" />
    <glyph glyph-name="Adieresis" unicode="&#xc4;" horiz-adv-x="580" 
d="M508 -71c-14.667 -2.66699 -24.3369 2.00098 -29.0039 14.001s-9 27.667 -13 47c-6 24 -11.833 53.667 -17.5 89s-16.167 72 -31.5 110c-2.66699 5.33301 -14.5 6.33301 -35.5 3s-47.833 -5 -80.5 -5c-9.33301 0.666992 -18.833 0.666992 -28.5 0
s-18.5 -1.66699 -26.5 -3s-14.5 -2.5 -19.5 -3.5s-7.5 -1.83301 -7.5 -2.5c-1.33301 -11.333 -2.83301 -27.5 -4.5 -48.5s-5.5 -41.667 -11.5 -62s-15 -37.666 -27 -51.999s-28.333 -20.5 -49 -18.5c-9.33301 0.666992 -15.833 9.66699 -19.5 27s-6.16699 37 -7.5 59
s-1.66602 43 -0.999023 63s1 33 1 39c-33.333 4.66699 -55.833 10.5 -67.5 17.5s-15.5 14.167 -11.5 21.5s14 14.333 30 21s35.667 12 59 16c2.66699 21.333 5.5 46.666 8.5 75.999s7.83301 59 14.5 89s15.834 58.333 27.501 85s27.167 48 46.5 64
c10 8 23.167 11.5 39.5 10.5s33.333 -6 51 -15s34.834 -22 51.501 -39s30.667 -37.167 42 -60.5c7.33301 -13.333 15 -29.166 23 -47.499s15.667 -37 23 -56l20.5 -53.5l14.5 -38c0.666992 -5.33301 6.66699 -8.16602 18 -8.49902s23.5 -0.166016 36.5 0.500977
s24.5 0.666992 34.5 0s14 -4.33398 12 -11.001c-0.666992 -4.66699 -5.66699 -9.83398 -15 -15.501s-19.666 -10.834 -30.999 -15.501s-21.666 -8.66699 -30.999 -12s-14 -5.33301 -14 -6c7.33301 -38 14.666 -73.333 21.999 -106s13 -61.334 17 -86.001
s5.33301 -44.667 4 -60s-7 -24.333 -17 -27zM255.997 501.001c-8.66699 -6 -15.168 -18.666 -19.501 -37.999s-7.16602 -40.833 -8.49902 -64.5s-2 -47.5 -2 -71.5s-0.333008 -44 -1 -60c4 -1.33301 15 -2.16602 33 -2.49902s36.833 -0.333008 56.5 0
s37.334 1.16602 53.001 2.49902s23.5 3 23.5 5c-0.666992 8 -3.66699 19.833 -9 35.5s-12 32.667 -20 51s-16.833 36.833 -26.5 55.5s-19.334 35.167 -29.001 49.5s-19 25.166 -28 32.499s-16.5 9 -22.5 5zM312.996 732.002c6 12.667 13.666 19.3311 22.999 19.998
s18 -2.33301 26 -9s14 -15.5 18 -26.5s3.66699 -21.167 -1 -30.5c-6.66699 -13.333 -14 -20.166 -22 -20.499s-15.5 3 -22.5 10s-12.667 16 -17 27s-5.83301 20.833 -4.5 29.5c0.666992 3.33301 0.833984 3.33301 0.500977 0s-0.833008 -6.66602 -1.5 -9.99902l-1 -5z
M123.995 740.999c11.333 10 22.334 15 33.001 15s19.667 -8 27 -24c2.66699 -4 6.66699 -8.33301 12 -13l16 -14.5c5.33301 -5 9.83301 -10.167 13.5 -15.5s5.16699 -11 4.5 -17c-2.66699 -12 -7.83398 -20.5 -15.501 -25.5s-16.5 -7.16699 -26.5 -6.5
s-20.167 3.66699 -30.5 9s-19 12.666 -26 21.999s-11.5 20 -13.5 32s0 24.667 6 38c1.33301 1.33301 1 -0.166992 -1 -4.5s-4 -8.16602 -6 -11.499s-2.83301 -4.5 -2.5 -3.5s3.5 7.5 9.5 19.5z" />
    <glyph glyph-name="Aring" unicode="&#xc5;" horiz-adv-x="574" 
d="M331 620c-7.33301 -15.333 -17.6689 -28.666 -31.002 -39.999c17.333 -9.33301 34 -22.833 50 -40.5s29.667 -40.5 41 -68.5c7.33301 -13.333 15 -29.166 23 -47.499s15.667 -37 23 -56l20.5 -53.5l14.5 -38c0.666992 -5.33301 6.66699 -8.16602 18 -8.49902
s23.5 -0.166016 36.5 0.500977s24.5 0.666992 34.5 0s14 -4.33398 12 -11.001c-0.666992 -4.66699 -5.66699 -9.83398 -15 -15.501s-19.666 -10.834 -30.999 -15.501s-21.666 -8.66699 -30.999 -12s-14 -5.33301 -14 -6c7.33301 -38 14.666 -73.333 21.999 -106
s13 -61.334 17 -86.001s5.33301 -44.667 4 -60s-7 -24.333 -17 -27c-14.667 -2.66699 -24.334 2 -29.001 14s-9 27.667 -13 47c-6 24 -11.833 53.667 -17.5 89s-16.167 72 -31.5 110c-2.66699 5.33301 -14 6.66602 -34 3.99902s-46.667 -5.66699 -80 -9
c-22.667 -0.666992 -42.334 -1.5 -59.001 -2.5s-25 -2.16699 -25 -3.5c-1.33301 -11.333 -2.83301 -27.5 -4.5 -48.5s-5.5 -41.667 -11.5 -62s-15 -37.666 -27 -51.999s-28.333 -20.5 -49 -18.5c-9.33301 0.666992 -15.833 9.66699 -19.5 27s-6.16699 37 -7.5 59
s-1.66602 43 -0.999023 63s1 33 1 39c-33.333 4.66699 -55.833 10.5 -67.5 17.5s-15.5 14.167 -11.5 21.5s14 14.333 30 21s35.667 12 59 16c2.66699 21.333 5.5 47 8.5 77s7.83301 60.5 14.5 91.5s15.667 60.333 27 88s26.333 49.5 45 65.5
c-7.33301 7.33301 -13.666 16 -18.999 26c-11.333 16.667 -17 35.667 -17 57s5.66699 41 17 59c5.33301 11.333 14 19.833 26 25.5s20.667 8.5 26 8.5c22 0 40.5 -4.83301 55.5 -14.5s26.5 -21.5 34.5 -35.5s12.333 -29.167 13 -45.5s-2.66602 -30.833 -9.99902 -43.5z
M255.997 501c-8.66699 -6 -15.168 -18.666 -19.501 -37.999s-7.16602 -40.833 -8.49902 -64.5s-2 -47.5 -2 -71.5s-0.333008 -44 -1 -60c4 -1.33301 15 -2.16602 33 -2.49902s36.833 -0.333008 56.5 0s37.334 1.16602 53.001 2.49902s23.5 3 23.5 5
c-0.666992 8 -3.66699 19.833 -9 35.5s-12 32.667 -20 51s-16.833 36.833 -26.5 55.5s-19.334 35.167 -29.001 49.5s-19 25.166 -28 32.499s-16.5 9 -22.5 5zM279.996 620.001c11.333 8.66699 17.999 20.168 19.999 34.501s0.5 27.333 -4.5 39s-12.667 19.667 -23 24
s-21.833 0.833008 -34.5 -10.5c-8.66699 -6 -13.667 -15.5 -15 -28.5s0.333984 -25.333 5.00098 -37s11.5 -20.334 20.5 -26.001s19.5 -4.16699 31.5 4.5z" />
    <glyph glyph-name="AE" unicode="&#xc6;" horiz-adv-x="742" 
d="M176 98c-4 -10.667 -10.1621 -23.5107 -18.4951 -38.5107s-17.833 -28.333 -28.5 -40s-21.834 -19.167 -33.501 -22.5s-22.834 1.66699 -33.501 15c-4.66699 6 -6.83398 16.333 -6.50098 31s2.33301 31.334 6 50.001s8.16699 38.334 13.5 59.001l15.5 59.5
c5 19 9.33301 36.167 13 51.5s5.5 26.666 5.5 33.999c0 2.66699 -5.83301 4.83398 -17.5 6.50098l-38.5 5.5c-14 2 -26.5 4.83301 -37.5 8.5s-15.5 8.83398 -13.5 15.501c3.33301 14 10.5 24.167 21.5 30.5s23.333 10.666 37 12.999s27.167 3.33301 40.5 3
s23.666 -0.166016 30.999 0.500977c2.66699 0 6.66699 5.16699 12 15.5s11.166 22.833 17.499 37.5l19.5 46.5l18 43.5c10 23.333 21.167 46.833 33.5 70.5s27.166 45.167 44.499 64.5c21.333 25.333 41 36.333 59 33s39.333 -19.666 64 -48.999
c1.33301 -2 9.33301 -2.16699 24 -0.5s32.334 4 53.001 7l67 10c24 3.66699 46.5 6.33398 67.5 8.00098s38.5 1.83398 52.5 0.500977s21.667 -5 23 -11c2 -7.33301 -4.66699 -14.666 -20 -21.999s-33.166 -14.333 -53.499 -21s-40.833 -12.334 -61.5 -17.001l-45 -10
c-17.333 -3.33301 -29 -12.666 -35 -27.999s-9.16699 -33.166 -9.5 -53.499s0.833984 -41.666 3.50098 -63.999s4 -41.833 4 -58.5c0 -0.666992 4.16699 -0.666992 12.5 0s19 1.16699 32 1.5s27 0.166016 42 -0.500977s29.167 -2.33398 42.5 -5.00098
c7.33301 -2 15.333 -2.66699 24 -2s17.334 1.16699 26.001 1.5s17.167 0.333008 25.5 0s16.166 -1.83301 23.499 -4.5c-4 -12.667 -12 -23.167 -24 -31.5s-26.167 -15.166 -42.5 -20.499s-33.5 -9.5 -51.5 -12.5s-34.5 -5.33301 -49.5 -7s-27.333 -3.16699 -37 -4.5
s-14.5 -3 -14.5 -5c0 -16.667 -0.166992 -35.167 -0.5 -55.5s0 -39.666 1 -57.999s3 -34.333 6 -48s7.5 -22.167 13.5 -25.5c22 -13.333 43.167 -18.833 63.5 -16.5s40.166 6.5 59.499 12.5s38.666 10.333 57.999 13s38.666 -2.66602 57.999 -15.999
c2 -2 2.16699 -6 0.5 -12s-4 -12.333 -7 -19s-6.33301 -12.834 -10 -18.501s-6.5 -9.16699 -8.5 -10.5c-13.333 -11.333 -26.666 -19.166 -39.999 -23.499s-26.833 -7 -40.5 -8s-27.834 -0.666992 -42.501 1s-30 3.16699 -46 4.5l-54 7c-20 2.66699 -39 7.16699 -57 13.5
s-33.333 15.333 -46 27s-20 27.5 -22 47.5c-0.666992 6 -1.66699 18.333 -3 37s-2.66602 38.334 -3.99902 59.001s-2.66602 39.667 -3.99902 57s-2.33301 28 -3 32c-0.666992 2.66699 -4.83398 4.66699 -12.501 6s-17 1.83301 -28 1.5s-22.5 -1 -34.5 -2
s-23 -1.83301 -33 -2.5c-1.33301 0 -4.5 -7.5 -9.5 -22.5l-18 -53.5l-21.5 -65zM340.005 560.989c-8.66699 -6 -16.4971 -16.666 -23.4971 -31.999s-13.167 -32 -18.5 -50s-10.166 -35.5 -14.499 -52.5s-7.83301 -30.167 -10.5 -39.5c8 0.666992 16.167 0.5 24.5 -0.5
s16.166 -1.5 23.499 -1.5s14 0.833008 20 2.5s11 5.16699 15 10.5c2 3.33301 3 9.5 3 18.5s-0.5 19.333 -1.5 31s-2.33301 24 -4 37s-3.33398 25 -5.00098 36s-3.33398 20.167 -5.00098 27.5s-2.83398 11.666 -3.50098 12.999z" />
    <glyph glyph-name="Ccedilla" unicode="&#xc7;" 
d="M279 -198c6 2.66699 13.665 4.50586 22.998 5.50586s18.333 3.33301 27 7s15.834 9 21.501 16s7.83398 17.833 6.50098 32.5c-2 11.333 -5.5 19.333 -10.5 24s-11 7.33398 -18 8.00098s-14.167 0.5 -21.5 -0.5s-14.333 -1.83301 -21 -2.5s-12.5 0 -17.5 2
s-8.16699 6.66699 -9.5 14c-2 9.33301 -4.5 17.666 -7.5 24.999s-5.5 14.666 -7.5 21.999s-3.33301 15 -4 23s0 17.333 2 28c-44.667 9.33301 -83.334 29.666 -116.001 60.999s-59 69.333 -79 114c-14 31.333 -23.167 67.333 -27.5 108s-3.66602 81.5 2.00098 122.5
s16.334 79.5 32.001 115.5s37.167 65 64.5 87c28.667 22.667 57.667 37.5 87 44.5s57.666 9 84.999 6s52.666 -9.83301 75.999 -20.5s43 -22 59 -34l24.5 -18c11.667 -8.66699 21.334 -17.834 29.001 -27.501s10.667 -18.167 9 -25.5s-13.167 -11.333 -34.5 -12
c-14.667 -0.666992 -28.667 0.333008 -42 3s-26.666 5.83398 -39.999 9.50098s-26.666 7 -39.999 10s-27.333 4.5 -42 4.5c-76.667 0 -124 -52.333 -142 -157c-4 -24 -7.66699 -53.5 -11 -88.5s-3.33301 -69.167 0 -102.5s11.666 -62 24.999 -86s34.666 -37 63.999 -39
c18 -1.33301 36.167 1.16699 54.5 7.5s36.166 14.5 53.499 24.5s33.833 21 49.5 33s29.834 23.667 42.501 35c2 2 7.16699 8.16699 15.5 18.5s17.833 20.166 28.5 29.499s20.667 16.333 30 21s16 2.66699 20 -6c2 -4 2.16699 -12.667 0.5 -26s-4 -27.5 -7 -42.5
s-6.16699 -29 -9.5 -42s-6 -20.833 -8 -23.5c-13.333 -17.333 -28.333 -34.333 -45 -51s-35.667 -29.334 -57 -38.001c-28 -11.333 -56 -17.333 -84 -18c2.66699 -18.667 3.5 -33.834 2.5 -45.501s-0.5 -21.834 1.5 -30.501c14.667 1.33301 30 0.833008 46 -1.5
s30.333 -7.16602 43 -14.499s22 -18 28 -32s6.33301 -31.667 1 -53c-2 -18 -11 -33 -27 -45s-33.333 -19.5 -52 -22.5s-35.5 -1.33301 -50.5 5s-22.5 19.166 -22.5 38.499z" />
    <glyph glyph-name="Egrave" unicode="&#xc8;" horiz-adv-x="414" 
d="M171 725c-6.66699 4 -14.168 9.49805 -22.501 16.498s-15.666 14.333 -21.999 22s-11.166 15.334 -14.499 23.001s-3 13.834 1 18.501s14 5.5 30 2.5s32.5 -8.66699 49.5 -17s31.833 -18.5 44.5 -30.5s18 -24.667 16 -38c-2.66699 -7.33301 -7.33398 -12 -14.001 -14
s-14 -2.33301 -22 -1s-16.167 3.83301 -24.5 7.5s-15.5 7.16699 -21.5 10.5zM379.999 126.998c6 -4 7.66309 -11.002 4.99609 -21.002s-8.5 -20.833 -17.5 -32.5s-20.5 -22.834 -34.5 -33.501s-29.333 -19 -46 -25c-14.667 -5.33301 -29.834 -10 -45.501 -14
s-32 -6.33301 -49 -7s-34.667 0.833008 -53 4.5s-36.833 10.5 -55.5 20.5c-26.667 13.333 -47 28.833 -61 46.5s-23.333 36.334 -28 56.001s-5 39.667 -1 60s10.5 40.166 19.5 59.499s20.333 37.5 34 54.5s27.834 32.167 42.501 45.5c-32.667 14.667 -55.5 33 -68.5 55
s-18.833 45.5 -17.5 70.5s8.33301 49.833 21 74.5s28.334 46.667 47.001 66s38.834 35 60.501 47s42.167 17.333 61.5 16c18 -1.33301 36.5 -5.66602 55.5 -12.999s35.833 -16 50.5 -26s25.5 -20 32.5 -30s7.16699 -18 0.5 -24c-4 -3.33301 -10 -3.33301 -18 0l-31.5 12.5
c-13 5 -28 9.5 -45 13.5s-36.5 5.66699 -58.5 5c-32 -2 -55 -13.5 -69 -34.5s-22 -47.833 -24 -80.5c-1.33301 -20 0.833984 -37.167 6.50098 -51.5s12.334 -25.666 20.001 -33.999s15 -14.166 22 -17.499s11.167 -4.33301 12.5 -3c22 18 45.5 32.833 70.5 44.5
s48.5 18.834 70.5 21.501s40.833 0.5 56.5 -6.5s25.167 -20.167 28.5 -39.5c-0.666992 -10 -5.66699 -19.333 -15 -28s-20.833 -16.334 -34.5 -23.001s-28.667 -12.667 -45 -18s-31.666 -9.83301 -45.999 -13.5l-36 -9c-9.66699 -2.33301 -14.834 -3.83301 -15.501 -4.5
c-15.333 -11.333 -30.833 -24.333 -46.5 -39s-27.167 -33.334 -34.5 -56.001c-6.66699 -20.667 -6.83398 -39 -0.500977 -55s17.333 -29.167 33 -39.5s34.834 -17.166 57.501 -20.499s47 -2.33301 73 3c8.66699 1.33301 18.5 4 29.5 8l33 11.5
c11 3.66699 21.167 6.16699 30.5 7.5s17 0 23 -4zM307.995 402.996c-14.667 9.33301 -28.833 9.99707 -42.5 1.99707s-29.167 -20 -46.5 -36c8 0.666992 17.667 2.33398 29 5.00098s22 5.83398 32 9.50098s18 7.33398 24 11.001s7.33301 6.5 4 8.5z" />
    <glyph glyph-name="Eacute" unicode="&#xc9;" horiz-adv-x="412" 
d="M234 730c-6 -4.66699 -13.499 -9.49609 -22.499 -14.4961s-18.333 -9 -28 -12s-18.334 -4.5 -26.001 -4.5s-12.834 2.66699 -15.501 8c-3.33301 5.33301 -0.666016 14.666 8.00098 27.999s19.667 26.166 33 38.499s27.833 22.166 43.5 29.499
s29.167 7.66602 40.5 0.999023c5.33301 -5.33301 7.5 -11.333 6.5 -18s-3.5 -13.5 -7.5 -20.5s-9 -13.667 -15 -20s-11.667 -11.5 -17 -15.5zM380.001 127.004c6 -4 7.66309 -11.002 4.99609 -21.002s-8.5 -20.833 -17.5 -32.5s-20.5 -22.834 -34.5 -33.501
s-29.333 -19 -46 -25c-14.667 -5.33301 -29.834 -10 -45.501 -14s-32 -6.33301 -49 -7s-34.667 0.833008 -53 4.5s-36.833 10.5 -55.5 20.5c-26.667 13.333 -47 28.833 -61 46.5s-23.333 36.334 -28 56.001s-5 39.667 -1 60s10.5 40.166 19.5 59.499s20.333 37.5 34 54.5
s27.834 32.167 42.501 45.5c-32.667 14.667 -55.5 33 -68.5 55s-18.833 45.5 -17.5 70.5s8.33301 49.833 21 74.5s28.334 46.667 47.001 66s38.834 35 60.501 47s42.167 17.333 61.5 16c18 -1.33301 36.5 -5.66602 55.5 -12.999s35.833 -16 50.5 -26s25.5 -20 32.5 -30
s7.16699 -18 0.5 -24c-4 -3.33301 -10 -3.33301 -18 0l-31.5 12.5c-13 5 -28 9.5 -45 13.5s-36.5 5.66699 -58.5 5c-32 -2 -55 -13.5 -69 -34.5s-22 -47.833 -24 -80.5c-1.33301 -20 0.833984 -37.167 6.50098 -51.5s12.334 -25.666 20.001 -33.999s15 -14.166 22 -17.499
s11.167 -4.33301 12.5 -3c22 18 45.5 32.833 70.5 44.5s48.5 18.834 70.5 21.501s40.833 0.5 56.5 -6.5s25.167 -20.167 28.5 -39.5c-0.666992 -10 -5.66699 -19.333 -15 -28s-20.833 -16.334 -34.5 -23.001s-28.667 -12.667 -45 -18s-31.666 -9.83301 -45.999 -13.5l-36 -9
c-9.66699 -2.33301 -14.834 -3.83301 -15.501 -4.5c-15.333 -11.333 -30.833 -24.333 -46.5 -39s-27.167 -33.334 -34.5 -56.001c-6.66699 -20.667 -6.83398 -39 -0.500977 -55s17.333 -29.167 33 -39.5s34.834 -17.166 57.501 -20.499s47 -2.33301 73 3
c8.66699 1.33301 18.5 4 29.5 8l33 11.5c11 3.66699 21.167 6.16699 30.5 7.5s17 0 23 -4zM307.997 403.002c-14.667 9.33301 -28.833 9.99707 -42.5 1.99707s-29.167 -20 -46.5 -36c8 0.666992 17.667 2.33398 29 5.00098s22 5.83398 32 9.50098s18 7.33398 24 11.001
s7.33301 6.5 4 8.5z" />
    <glyph glyph-name="Ecircumflex" unicode="&#xca;" horiz-adv-x="414" 
d="M177 749c-12 -13.333 -22.1689 -25.3369 -30.502 -36.0039s-19.166 -16.667 -32.499 -18c-7.33301 2.66699 -11.666 7.5 -12.999 14.5s-0.833008 14.333 1.5 22s5.83301 15.334 10.5 23.001s9.66699 14.167 15 19.5l17 20c4.66699 5.33301 9.5 9 14.5 11
s10.667 2.33301 17 1s14.5 -4.33301 24.5 -9c6.66699 -3.33301 15.167 -9.66602 25.5 -18.999s19.5 -19.333 27.5 -30s13.833 -20.667 17.5 -30s2.5 -15.666 -3.5 -18.999s-13 -3.16602 -21 0.500977s-16 8.66699 -24 15s-16 13 -24 20s-15.333 11.833 -22 14.5z
M379.998 126.996c6 -4 7.66309 -11.002 4.99609 -21.002s-8.5 -20.833 -17.5 -32.5s-20.5 -22.834 -34.5 -33.501s-29.333 -19 -46 -25c-14.667 -5.33301 -29.834 -10 -45.501 -14s-32 -6.33301 -49 -7s-34.667 0.833008 -53 4.5s-36.833 10.5 -55.5 20.5
c-26.667 13.333 -47 28.833 -61 46.5s-23.333 36.334 -28 56.001s-5 39.667 -1 60s10.5 40.166 19.5 59.499s20.333 37.5 34 54.5s27.834 32.167 42.501 45.5c-32.667 14.667 -55.5 33 -68.5 55s-18.833 45.5 -17.5 70.5s8.33301 49.833 21 74.5s28.334 46.667 47.001 66
s38.834 35 60.501 47s42.167 17.333 61.5 16c18 -1.33301 36.5 -5.66602 55.5 -12.999s35.833 -16 50.5 -26s25.5 -20 32.5 -30s7.16699 -18 0.5 -24c-4 -3.33301 -10 -3.33301 -18 0l-31.5 12.5c-13 5 -28 9.5 -45 13.5s-36.5 5.66699 -58.5 5c-32 -2 -55 -13.5 -69 -34.5
s-22 -47.833 -24 -80.5c-1.33301 -20 0.833984 -37.167 6.50098 -51.5s12.334 -25.666 20.001 -33.999s15 -14.166 22 -17.499s11.167 -4.33301 12.5 -3c22 18 45.5 32.833 70.5 44.5s48.5 18.834 70.5 21.501s40.833 0.5 56.5 -6.5s25.167 -20.167 28.5 -39.5
c-0.666992 -10 -5.66699 -19.333 -15 -28s-20.833 -16.334 -34.5 -23.001s-28.667 -12.667 -45 -18s-31.666 -9.83301 -45.999 -13.5l-36 -9c-9.66699 -2.33301 -14.834 -3.83301 -15.501 -4.5c-15.333 -11.333 -30.833 -24.333 -46.5 -39s-27.167 -33.334 -34.5 -56.001
c-6.66699 -20.667 -6.83398 -39 -0.500977 -55s17.333 -29.167 33 -39.5s34.834 -17.166 57.501 -20.499s47 -2.33301 73 3c8.66699 1.33301 18.5 4 29.5 8l33 11.5c11 3.66699 21.167 6.16699 30.5 7.5s17 0 23 -4zM307.994 402.994
c-14.667 9.33301 -28.833 9.99707 -42.5 1.99707s-29.167 -20 -46.5 -36c8 0.666992 17.667 2.33398 29 5.00098s22 5.83398 32 9.50098s18 7.33398 24 11.001s7.33301 6.5 4 8.5z" />
    <glyph glyph-name="Edieresis" unicode="&#xcb;" horiz-adv-x="414" 
d="M380 127c6 -4 7.66309 -11.002 4.99609 -21.002s-8.5 -20.833 -17.5 -32.5s-20.5 -22.834 -34.5 -33.501s-29.333 -19 -46 -25c-14.667 -5.33301 -29.834 -10 -45.501 -14s-32 -6.33301 -49 -7s-34.667 0.833008 -53 4.5s-36.833 10.5 -55.5 20.5
c-26.667 13.333 -47 28.833 -61 46.5s-23.333 36.334 -28 56.001s-5 39.667 -1 60s10.5 40.166 19.5 59.499s20.333 37.5 34 54.5s27.834 32.167 42.501 45.5c-32.667 14.667 -55.5 33 -68.5 55s-18.833 45.5 -17.5 70.5s8.33301 49.833 21 74.5s28.334 46.667 47.001 66
s38.834 35 60.501 47s42.167 17.333 61.5 16c18 -1.33301 36.5 -5.66602 55.5 -12.999s35.833 -16 50.5 -26s25.5 -20 32.5 -30s7.16699 -18 0.5 -24c-4 -3.33301 -10 -3.33301 -18 0l-31.5 12.5c-13 5 -28 9.5 -45 13.5s-36.5 5.66699 -58.5 5c-32 -2 -55 -13.5 -69 -34.5
s-22 -47.833 -24 -80.5c-1.33301 -20 0.833984 -37.167 6.50098 -51.5s12.334 -25.666 20.001 -33.999s15 -14.166 22 -17.499s11.167 -4.33301 12.5 -3c22 18 45.5 32.833 70.5 44.5s48.5 18.834 70.5 21.501s40.833 0.5 56.5 -6.5s25.167 -20.167 28.5 -39.5
c-0.666992 -10 -5.66699 -19.333 -15 -28s-20.833 -16.334 -34.5 -23.001s-28.667 -12.667 -45 -18s-31.666 -9.83301 -45.999 -13.5l-36 -9c-9.66699 -2.33301 -14.834 -3.83301 -15.501 -4.5c-15.333 -11.333 -30.833 -24.333 -46.5 -39s-27.167 -33.334 -34.5 -56.001
c-6.66699 -20.667 -6.83398 -39 -0.500977 -55s17.333 -29.167 33 -39.5s34.834 -17.166 57.501 -20.499s47 -2.33301 73 3c8.66699 1.33301 18.5 4 29.5 8l33 11.5c11 3.66699 21.167 6.16699 30.5 7.5s17 0 23 -4zM307.996 402.998
c-14.667 9.33301 -28.833 9.99707 -42.5 1.99707s-29.167 -20 -46.5 -36c8 0.666992 17.667 2.33398 29 5.00098s22 5.83398 32 9.50098s18 7.33398 24 11.001s7.33301 6.5 4 8.5zM238.997 772.995c5.33301 10.667 11.999 16.168 19.999 16.501s15.5 -2.33398 22.5 -8.00098
s12.167 -13.167 15.5 -22.5s3 -18 -1 -26c-5.33301 -12 -11.666 -18 -18.999 -18s-14 3 -20 9s-10.833 13.667 -14.5 23s-4.83398 18 -3.50098 26c0.666992 2.66699 0.833984 2.5 0.500977 -0.5s-0.833008 -6 -1.5 -9s-1 -4.33301 -1 -4s0.666992 4.83301 2 13.5z
M74.9961 778.996c10 9.33301 19.834 13.998 29.501 13.998s17.167 -6.66699 22.5 -20c2.66699 -3.33301 6.33398 -7.16602 11.001 -11.499l14 -13c4.66699 -4.33301 8.66699 -9 12 -14s4.66602 -9.83301 3.99902 -14.5c-3.33301 -15.333 -11.666 -24.166 -24.999 -26.499
s-26.333 0 -39 7s-22.667 17.5 -30 31.5s-7 29.667 1 47c1.33301 2 1.16602 1.16699 -0.500977 -2.5s-3.33398 -7 -5.00098 -10s-2.5 -4.16699 -2.5 -3.5s2.66699 6 8 16z" />
    <glyph glyph-name="Igrave" unicode="&#xcc;" horiz-adv-x="315" 
d="M145 668c-7.33301 4.66699 -15.8311 11.0039 -25.498 19.0039s-18.334 16.667 -26.001 26s-13.334 18.333 -17.001 27s-3.16699 16 1.5 22c3.33301 4 10 5.66699 20 5s21.333 -2.83398 34 -6.50098s25.834 -8.83398 39.501 -15.501s26 -14.334 37 -23.001
s19.833 -18 26.5 -28s9 -20 7 -30c-3.33301 -8 -8.83301 -13.167 -16.5 -15.5s-16.334 -2.83301 -26.001 -1.5s-19.5 4.16602 -29.5 8.49902s-18.333 8.5 -25 12.5zM227.002 311.004c0 -20 -0.998047 -42.167 -2.99805 -66.5s-5.16699 -48.5 -9.5 -72.5
s-9.33301 -47.333 -15 -70s-11.834 -42.334 -18.501 -59.001s-13.5 -29.667 -20.5 -39s-13.833 -13 -20.5 -11c-8.66699 2 -15.834 9.83301 -21.501 23.5s-10.5 30.334 -14.5 50.001s-7.16699 41.5 -9.5 65.5s-4 47.667 -5 71s-1.5 45 -1.5 65s0.333008 36 1 48
c0 15.333 0.166992 33.333 0.5 54s0.833008 41.667 1.5 63s1.66699 42.166 3 62.499s3 38.5 5 54.5s4.66699 29 8 39s7 14.667 11 14c25.333 -3.33301 45 -15.166 59 -35.499s24.5 -45 31.5 -74s11.5 -59.833 13.5 -92.5s3.66699 -62.667 5 -90z" />
    <glyph glyph-name="Iacute" unicode="&#xcd;" horiz-adv-x="302" 
d="M221 311c0 -20 -0.998047 -42.167 -2.99805 -66.5s-5.16699 -48.5 -9.5 -72.5s-9.33301 -47.333 -15 -70s-11.834 -42.334 -18.501 -59.001s-13.5 -29.667 -20.5 -39s-13.833 -13 -20.5 -11c-8.66699 2 -15.834 9.83301 -21.501 23.5s-10.5 30.334 -14.5 50.001
s-7.16699 41.5 -9.5 65.5s-4 47.667 -5 71s-1.5 45 -1.5 65s0.333008 36 1 48c0 15.333 0.166992 33.333 0.5 54s0.833008 41.667 1.5 63s1.66699 42.166 3 62.499s3 38.5 5 54.5s4.5 29 7.5 39s6.83301 14.667 11.5 14c25.333 -3.33301 45 -15.166 59 -35.499
s24.5 -45 31.5 -74s11.5 -59.833 13.5 -92.5s3.66699 -62.667 5 -90zM170.002 688c-6 -4.66699 -13.499 -9.49609 -22.499 -14.4961s-18.333 -9 -28 -12s-18.334 -4.5 -26.001 -4.5s-12.834 2.66699 -15.501 8c-3.33301 5.33301 -0.666016 14.666 8.00098 27.999
s19.667 26.166 33 38.499s27.833 22.166 43.5 29.499s29.167 7.66602 40.5 0.999023c5.33301 -5.33301 7.5 -11.333 6.5 -18s-3.5 -13.5 -7.5 -20.5s-9 -13.667 -15 -20s-11.667 -11.5 -17 -15.5z" />
    <glyph glyph-name="Icircumflex" unicode="&#xce;" horiz-adv-x="302" 
d="M221 311c0 -20 -0.998047 -42.167 -2.99805 -66.5s-5.16699 -48.5 -9.5 -72.5s-9.33301 -47.333 -15 -70s-11.834 -42.334 -18.501 -59.001s-13.5 -29.667 -20.5 -39s-13.833 -13 -20.5 -11c-8.66699 2 -15.834 9.83301 -21.501 23.5s-10.5 30.334 -14.5 50.001
s-7.16699 41.5 -9.5 65.5s-4 47.667 -5 71s-1.5 45 -1.5 65s0.333008 36 1 48c0 15.333 0.166992 33.333 0.5 54s0.833008 41.667 1.5 63s1.66699 42.166 3 62.499s3 38.5 5 54.5s4.5 29 7.5 39s6.83301 14.667 11.5 14c25.333 -3.33301 45 -15.166 59 -35.499
s24.5 -45 31.5 -74s11.5 -59.833 13.5 -92.5s3.66699 -62.667 5 -90zM134.002 728c-12 -13.333 -22.1689 -25.3369 -30.502 -36.0039s-19.166 -16.667 -32.499 -18c-7.33301 2.66699 -11.666 7.5 -12.999 14.5s-0.833008 14.333 1.5 22s5.83301 15.334 10.5 23.001
s9.66699 14.167 15 19.5l17 20c4.66699 5.33301 9.5 9 14.5 11s10.667 2.33301 17 1s14.5 -4.33301 24.5 -9c6.66699 -3.33301 15.167 -9.66602 25.5 -18.999s19.5 -19.333 27.5 -30s13.833 -20.667 17.5 -30s2.5 -15.666 -3.5 -18.999s-13 -3.16602 -21 0.500977
s-16 8.66699 -24 15s-16 13 -24 20s-15.333 11.833 -22 14.5z" />
    <glyph glyph-name="Idieresis" unicode="&#xcf;" horiz-adv-x="303" 
d="M185 773c5.33301 10.667 11.999 16.168 19.999 16.501s15.5 -2.33398 22.5 -8.00098s12.167 -13.167 15.5 -22.5s3 -18 -1 -26c-5.33301 -12 -11.666 -18 -18.999 -18s-14 3 -20 9s-10.833 13.667 -14.5 23s-4.83398 18 -3.50098 26
c0.666992 2.66699 0.833984 2.5 0.500977 -0.5s-0.833008 -6 -1.5 -9s-1 -4.33301 -1 -4s0.666992 4.83301 2 13.5zM20.999 779.001c10 9.33301 19.834 13.998 29.501 13.998s17.167 -6.66699 22.5 -20c2.66699 -3.33301 6.33398 -7.16602 11.001 -11.499l14 -13
c4.66699 -4.33301 8.66699 -9 12 -14s4.66602 -9.83301 3.99902 -14.5c-3.33301 -15.333 -11.666 -24.166 -24.999 -26.499s-26.333 0 -39 7s-22.667 17.5 -30 31.5s-7 29.667 1 47c1.33301 2 1.16602 1.16699 -0.500977 -2.5s-3.33398 -7 -5.00098 -10
s-2.5 -4.16699 -2.5 -3.5s2.66699 6 8 16zM221 310.999c0 -20 -0.998047 -42.167 -2.99805 -66.5s-5.16699 -48.5 -9.5 -72.5s-9.33301 -47.333 -15 -70s-11.834 -42.334 -18.501 -59.001s-13.5 -29.667 -20.5 -39s-13.833 -13 -20.5 -11
c-8.66699 2 -15.834 9.83301 -21.501 23.5s-10.5 30.334 -14.5 50.001s-7.16699 41.5 -9.5 65.5s-4 47.667 -5 71s-1.5 45 -1.5 65s0.333008 36 1 48c0 15.333 0.166992 33.333 0.5 54s0.833008 41.667 1.5 63s1.66699 42.166 3 62.499s3 38.5 5 54.5s4.5 29 7.5 39
s6.83301 14.667 11.5 14c25.333 -3.33301 45 -15.166 59 -35.499s24.5 -45 31.5 -74s11.5 -59.833 13.5 -92.5s3.66699 -62.667 5 -90z" />
    </font>
</defs>
</svg>
